[ Сегодня идет свободное скачивание без начисления Download ]


Статистика раздачи
Нет
 
   
 
Top  
 
 
Новые приключения муравья и блохи / Сказка (2 серии)
Жанр: музыкальный, сказка
Год выпуска: 1980
Продолжительность: 00:59:03 + 01:03:59
Режиссёр: Котэ (Константин) Сурмава
В ролях: Георгий Сихарулидзе, Каха Дагелашвили, Бакури Бакурадзе, Ираклий Бенделиани, Леван Бокучава, М.Маргвелашвили, Ванико Мачавариани, Алеко Стуруа, Георгий Чхаидзе, Софико Чиаурели, Юрий Васадзе, Георгий Кавтарадзе, Гиви Берикашвили, Григорий Цитайшвили, Валерий Аргвлиани, Нугзар Гелашвили, Мераб Донадзе, Омар Хопелия, Эка Виблиани, Нодар Маргвелашвили, Флора (Феодосия) Шедания
Описание: Современный вариант грузинской народной сказки. О том как блоха выручила из беды муравья. В фильме снимался вокально-инструментальный ансамбль "Мзиури" Тбилисского дворца пионеров и школьников.
Доп. информация: Запись потока *.ts со спутника EUTELSAT, ремукс в *.mpg программой VideoReDo.
Качество видео: DVB
Формат видео: MPEG-PS
Видео: MPEG2 Video, 720x576 (4:3), 25,000 кадров/сек, 3618 Кбит/сек
Аудио: MPEG Audio, 48,0 КГц, 192 Кбит/сек, 2 канала

MediaInfo

Общее
Полное имя : E:\Torrent\Новые приключения муравья и блохи\НОВЫЕ ПРИКЛЮЧЕНИЯ МУРАВЬЯ И БЛОХИ 1 (Karusel int).mpg
Формат : MPEG-PS
Размер файла : 1,60 Гбайт
Продолжительность : 59 м.
Режим общего битрейта : Переменный
Общий поток : 3887 Кбит/сек
Видео
Идентификатор : 224 (0xE0)
Формат : MPEG Video
Версия формата : Version 2
Профиль формата : Main@Main
Параметр BVOP формата : Да
Параметр матрицы формата : Выборочная
Параметр GOP формата : M=3, N=12
Продолжительность : 59 м.
Вид битрейта : Переменный
Битрейт : 3618 Кбит/сек
Максимальный битрейт : 5000 Кбит/сек
Ширина : 720 пикселей
Высота : 576 пикселей
Соотношение сторон : 4:3
Частота кадров : 25,000 кадров/сек
Стандарт вещания : PAL
Цветовое пространство : YUV
Субдискретизация насыщенности : 4:2:0
Битовая глубина : 8 бит
Тип развёртки : Чересстрочная
Порядок развёртки : Верхнее поле первое
Метод сжатия : С потерями
Бит/(Пиксели*Кадры) : 0.349
Размер потока : 1,49 Гбайт (93%)
Аудио
Идентификатор : 192 (0xC0)
Формат : MPEG Audio
Версия формата : Version 1
Профиль формата : Layer 2
Продолжительность : 59 м.
Вид битрейта : Постоянный
Битрейт : 192 Кбит/сек
Каналы : 2 канала
Частота : 48,0 КГц
Метод сжатия : С потерями
Размер потока : 81,1 Мбайт (5%)
Общее
Полное имя : E:\Torrent\Новые приключения муравья и блохи\НОВЫЕ ПРИКЛЮЧЕНИЯ МУРАВЬЯ И БЛОХИ 2 (Karusel int).mpg
Формат : MPEG-PS
Размер файла : 1,72 Гбайт
Продолжительность : 1 ч. 3 м.
Режим общего битрейта : Переменный
Общий поток : 3855 Кбит/сек
Видео
Идентификатор : 224 (0xE0)
Формат : MPEG Video
Версия формата : Version 2
Профиль формата : Main@Main
Параметр BVOP формата : Да
Параметр матрицы формата : Выборочная
Параметр GOP формата : M=3, N=12
Продолжительность : 1 ч. 3 м.
Вид битрейта : Переменный
Битрейт : 3586 Кбит/сек
Максимальный битрейт : 5000 Кбит/сек
Ширина : 720 пикселей
Высота : 576 пикселей
Соотношение сторон : 4:3
Частота кадров : 25,000 кадров/сек
Стандарт вещания : PAL
Цветовое пространство : YUV
Субдискретизация насыщенности : 4:2:0
Битовая глубина : 8 бит
Тип развёртки : Чересстрочная
Порядок развёртки : Верхнее поле первое
Метод сжатия : С потерями
Бит/(Пиксели*Кадры) : 0.346
Размер потока : 1,60 Гбайт (93%)
Аудио
Идентификатор : 192 (0xC0)
Формат : MPEG Audio
Версия формата : Version 1
Профиль формата : Layer 2
Продолжительность : 1 ч. 3 м.
Вид битрейта : Постоянный
Битрейт : 192 Кбит/сек
Каналы : 2 канала
Частота : 48,0 КГц
Метод сжатия : С потерями
Размер потока : 87,9 Мбайт (5%)

Скриншоты

[Цитировать]



Показать сообщения:    

Текущее время: 09-Дек 12:43

Часовой пояс: UTC + 3


Вы не можете начинать темы
Вы не можете отвечать на сообщения
Вы не можете редактировать свои сообщения
Вы не можете удалять свои сообщения
Вы не можете голосовать в опросах
Вы не можете прикреплять файлы к сообщениям
Вы не можете скачивать файлы

!ВНИМАНИЕ!
Сайт не предоставляет электронные версии произведений, а занимается лишь коллекционированием и каталогизацией ссылок, присылаемых и публикуемых на форуме нашими читателями. Если вы являетесь правообладателем какого-либо представленного материала и не желаете, чтобы ссылка на него находилась в нашем каталоге, свяжитесь с нами, и мы незамедлительно удалим ее. Файлы для обмена на трекере предоставлены пользователями сайта, и администрация не несет ответственности за их содержание. Просьба не заливать файлы, защищенные авторскими правами, а также файлы нелегального содержания!