[ Сегодня идет свободное скачивание без начисления Download ]


Статистика раздачи
Нет
 
   
 
Top  
 
 
Сказка, рассказанная ночью
Жанр: сказка
Год выпуска: 1981
Продолжительность: 01:12:32
Режиссёр: Ирина Тарковская
В ролях: Игорь Костолевский, Александр Лазарев старший, Александр Галибин, Александр Калягин, Расми (Рамзес) Джабраилов, Мара Звайгзне, Димитрий Кречетов, Юри Ярвет, Майя Кирсе, Леонид Ярмольник, Ирина Мурзаева, Дмитрий Кравцов (озвучание - Михаил Кононов), Валентинс Скулме, Гунта Грива, Вера Грибача-Валтере, Виктор Косых, Анатолий Касапов, Эдгар Лиепинь, Сергей Лодзейский, Гунар Плаценс, Рудольф Плепис, Александр Слауготнис
Описание: По мотивам сказок Вильгельма Гауфа. Что делать, если на дворе - почти полночь, а всё никак не спится? Самое приятное - слушать сказки: весёлые и грустные, страшные и смешные, поучительные и забавные. В основе сюжета - две сказочные истории: об угольщике Петере, продавшем свое сердце за мешок золота, и о том, как отважный Студент спас прекрасную Графиню от злых разбойников...

Исходник:
Качество видео: DVDRip
Формат видео: AVI
Видео: 624x352 (1.77:1), 25 fps, XviD 1.0.3, 1297 kbps avg, 0.236 bit/pixel
Аудио: 48 kHz, MPEG Layer 3, 2 ch, 128 kbps avg, CBR

MediaInfo

General
Complete name                  : C:\Раздачи\Сказка, рассказанная ночью DVDRip.avi
Format                         : AVI
Format/Info                    : Audio Video Interleave
File size                      : 745 MiB
Duration                       : 1h 12mn
Overall bit rate               : 1 435 Kbps
Writing application            : VirtualDubMod 1.5.10.2 (build 2540/release)
Writing library                : VirtualDubMod build 2540/release
Video
ID                             : 0
Format                         : MPEG-4 Visual
Format profile                 : Advanced Simple@L5
Format settings, BVOP          : No
Format settings, QPel          : No
Format settings, GMC           : No warppoints
Format settings, Matrix        : Custom
Codec ID                       : XVID
Codec ID/Hint                  : XviD
Duration                       : 1h 12mn
Bit rate                       : 1 297 Kbps
Width                          : 624 pixels
Height                         : 352 pixels
Display aspect ratio           : 16:9
Frame rate                     : 25.000 fps
Color space                    : YUV
Chroma subsampling             : 4:2:0
Bit depth                      : 8 bits
Scan type                      : Progressive
Compression mode               : Lossy
Bits/(Pixel*Frame)             : 0.236
Stream size                    : 673 MiB (90%)
Writing library                : XviD 1.0.3 (UTC 2004-12-20)
Audio
ID                             : 1
Format                         : MPEG Audio
Format version                 : Version 1
Format profile                 : Layer 3
Mode                           : Joint stereo
Mode extension                 : MS Stereo
Codec ID                       : 55
Codec ID/Hint                  : MP3
Duration                       : 1h 12mn
Bit rate mode                  : Constant
Bit rate                       : 128 Kbps
Channel(s)                     : 2 channels
Sampling rate                  : 48.0 KHz
Compression mode               : Lossy
Stream size                    : 66.4 MiB (9%)
Alignment                      : Aligned on interleaves
Interleave, duration           : 40 ms (1.00 video frame)
Interleave, preload duration   : 504 ms

Скриншот c названием фильма

Скриншоты

Релиз группы

[Цитировать]



Показать сообщения:    

Текущее время: 11-Дек 14:57

Часовой пояс: UTC + 3


Вы не можете начинать темы
Вы не можете отвечать на сообщения
Вы не можете редактировать свои сообщения
Вы не можете удалять свои сообщения
Вы не можете голосовать в опросах
Вы не можете прикреплять файлы к сообщениям
Вы не можете скачивать файлы

!ВНИМАНИЕ!
Сайт не предоставляет электронные версии произведений, а занимается лишь коллекционированием и каталогизацией ссылок, присылаемых и публикуемых на форуме нашими читателями. Если вы являетесь правообладателем какого-либо представленного материала и не желаете, чтобы ссылка на него находилась в нашем каталоге, свяжитесь с нами, и мы незамедлительно удалим ее. Файлы для обмена на трекере предоставлены пользователями сайта, и администрация не несет ответственности за их содержание. Просьба не заливать файлы, защищенные авторскими правами, а также файлы нелегального содержания!