[ Сегодня идет свободное скачивание без начисления Download ]


Статистика раздачи
Нет
 
   
 
Top  
 
 
Два капитана (6 серий)
Жанр: киноповесть, экранизация
Год выпуска: 1976
Продолжительность: 06:57:48 (01:05:52 + 01:12:10 + 01:22:56 + 01:10:19 + 01:13:29 + 01:03:02)
Режиссёр: Евгений Карелов
В ролях:
Борис Токарев, Серёжа Кудрявцев, Елена Прудникова, Лена Лобкина, Юрий Богатырёв, Николай Гриценко, Ирина Печерникова, Георгий Куликов, Вера Кузнецова, Зинаида Кириенко, Наталья Егорова, Ира Клименко, Юрий Кузьменков, Саша Пузанков, Владимир Заманский, Михаил Пуговкин, Петр Любешкин, Любовь Соколова, Александр Вигдоров, Лариса Виккел, Александр Вокач, Константин Бердиков, Евгений Буренков, Никифор Колофидин, Михаил Погоржельский, Раиса Куркина и другие
Описание:
Знаменитая экранизация романа Вениамина Каверина. Удивительная история о любви и дружбе, стойкости и слабости, верности и предательстве, пронизанная духом романтики и приключений. История Саши Григорьева, с детских лет поставившего перед собой благородную и трудную задачу - раскрыть тайну гибели полярной экспедиции капитана Татаринова. «Бороться и искать, найти и не сдаваться», - таков девиз будущего летчика полярной авиации...
Доп. информация:
Сценаристы: Евгений Карелов, Вениамин Каверин
Оператор: Валентин Макаров
Композитор: Евгений Птичкин
Художник: Михаил Карташов
Страна: СССР
Производство: Мосфильм
Год: 1976
Премьера: 26 февраля 1977 (ТВ)
Семпл: http://www.sendspace.com/file/6kx7vw
Качество видео: TVRip
Формат видео: MPEG-PS
Видео: MPEG2 Video, 720x576 (4:3) 25.00fps, ~6144, 0.593 bit/pixel
Аудио: MPEG Audio, 48000Hz, 2/0 (L,R) ch, 192 Kbps

MediaInfo

Полное имя : G:\DVD\Два капитана (1976)\Два капитана-1.mpg
Формат : MPEG-PS
Размер файла : 2,96 Гбайт
Продолжительность : 1 ч. 5 м.
Общий поток : 6423 Кбит/сек
Видео
Идентификатор : 224 (0xE0)
Формат : MPEG Video
Версия формата : Version 2
Профиль формата : Main@Main
Параметр BVOP формата : Да
Параметр матрицы формата : По умолчанию
Продолжительность : 1 ч. 5 м.
Вид битрейта : Переменный
Битрейт : 6144 Кбит/сек
Ширина : 720 пикселей
Высота : 576 пикселей
Соотношение сторон : 4:3
Частота кадров : 25,000 кадров/сек
Стандарт вещания : PAL
Цветовое пространство : YUV
Субдискретизация насыщенности : 4:2:0
Битовая глубина : 8 бит
Тип развёртки : Прогрессивная
Метод сжатия : С потерями
Бит/(Пиксели*Кадры) : 0.593
Размер потока : 2,81 Гбайт (95%)
Аудио
Идентификатор : 192 (0xC0)
Формат : MPEG Audio
Версия формата : Version 1
Профиль формата : Layer 2
Продолжительность : 1 ч. 5 м.
Вид битрейта : Постоянный
Битрейт : 192 Кбит/сек
Каналы : 2 канала
Частота : 48,0 КГц
Метод сжатия : С потерями
Размер потока : 90,5 Мбайт (3%)
------------------------------------------------------------------------------------------------------------------------------------------------------------------------------------
Полное имя : G:\DVD\Два капитана (1976)\Два капитана-2.mpg
Формат : MPEG-PS
Размер файла : 3,24 Гбайт
Продолжительность : 1 ч. 12 м.
Общий поток : 6423 Кбит/сек
Видео
Идентификатор : 224 (0xE0)
Формат : MPEG Video
Версия формата : Version 2
Профиль формата : Main@Main
Параметр BVOP формата : Да
Параметр матрицы формата : По умолчанию
Продолжительность : 1 ч. 12 м.
Вид битрейта : Переменный
Битрейт : 6144 Кбит/сек
Ширина : 720 пикселей
Высота : 576 пикселей
Соотношение сторон : 4:3
Частота кадров : 25,000 кадров/сек
Стандарт вещания : PAL
Цветовое пространство : YUV
Субдискретизация насыщенности : 4:2:0
Битовая глубина : 8 бит
Тип развёртки : Прогрессивная
Метод сжатия : С потерями
Бит/(Пиксели*Кадры) : 0.593
Размер потока : 3,08 Гбайт (95%)
Аудио
Идентификатор : 192 (0xC0)
Формат : MPEG Audio
Версия формата : Version 1
Профиль формата : Layer 2
Продолжительность : 1 ч. 12 м.
Вид битрейта : Постоянный
Битрейт : 192 Кбит/сек
Каналы : 2 канала
Частота : 48,0 КГц
Метод сжатия : С потерями
Размер потока : 99,1 Мбайт (3%)
---------------------------------------------------------------------------------------------------------------------------------------------------------------------------------
Полное имя : G:\DVD\Два капитана (1976)\Два капитана-3.mpg
Формат : MPEG-PS
Размер файла : 3,72 Гбайт
Продолжительность : 1 ч. 22 м.
Общий поток : 6423 Кбит/сек
Видео
Идентификатор : 224 (0xE0)
Формат : MPEG Video
Версия формата : Version 2
Профиль формата : Main@Main
Параметр BVOP формата : Да
Параметр матрицы формата : По умолчанию
Продолжительность : 1 ч. 22 м.
Вид битрейта : Переменный
Битрейт : 6144 Кбит/сек
Ширина : 720 пикселей
Высота : 576 пикселей
Соотношение сторон : 4:3
Частота кадров : 25,000 кадров/сек
Стандарт вещания : PAL
Цветовое пространство : YUV
Субдискретизация насыщенности : 4:2:0
Битовая глубина : 8 бит
Тип развёртки : Прогрессивная
Метод сжатия : С потерями
Бит/(Пиксели*Кадры) : 0.593
Размер потока : 3,54 Гбайт (95%)
Аудио
Идентификатор : 192 (0xC0)
Формат : MPEG Audio
Версия формата : Version 1
Профиль формата : Layer 2
Продолжительность : 1 ч. 22 м.
Вид битрейта : Постоянный
Битрейт : 192 Кбит/сек
Каналы : 2 канала
Частота : 48,0 КГц
Метод сжатия : С потерями
Размер потока : 114 Мбайт (3%)
------------------------------------------------------------------------------------------------------------------------------------------------------
Полное имя : G:\DVD\Два капитана (1976)\Два капитана-4.mpg
Формат : MPEG-PS
Размер файла : 3,15 Гбайт
Продолжительность : 1 ч. 10 м.
Общий поток : 6423 Кбит/сек
Видео
Идентификатор : 224 (0xE0)
Формат : MPEG Video
Версия формата : Version 2
Профиль формата : Main@Main
Параметр BVOP формата : Да
Параметр матрицы формата : По умолчанию
Продолжительность : 1 ч. 10 м.
Вид битрейта : Переменный
Битрейт : 6144 Кбит/сек
Ширина : 720 пикселей
Высота : 576 пикселей
Соотношение сторон : 4:3
Частота кадров : 25,000 кадров/сек
Стандарт вещания : PAL
Цветовое пространство : YUV
Субдискретизация насыщенности : 4:2:0
Битовая глубина : 8 бит
Тип развёртки : Прогрессивная
Метод сжатия : С потерями
Бит/(Пиксели*Кадры) : 0.593
Размер потока : 3,00 Гбайт (95%)
Аудио
Идентификатор : 192 (0xC0)
Формат : MPEG Audio
Версия формата : Version 1
Профиль формата : Layer 2
Продолжительность : 1 ч. 10 м.
Вид битрейта : Постоянный
Битрейт : 192 Кбит/сек
Каналы : 2 канала
Частота : 48,0 КГц
Метод сжатия : С потерями
Размер потока : 96,6 Мбайт (3%)
--------------------------------------------------------------------------------------------------------------------------
Полное имя : G:\DVD\Два капитана (1976)\Два капитана-5.mpg
Формат : MPEG-PS
Размер файла : 3,30 Гбайт
Продолжительность : 1 ч. 13 м.
Общий поток : 6423 Кбит/сек
Видео
Идентификатор : 224 (0xE0)
Формат : MPEG Video
Версия формата : Version 2
Профиль формата : Main@Main
Параметр BVOP формата : Да
Параметр матрицы формата : По умолчанию
Параметр GOP формата : M=3, N=15
Продолжительность : 1 ч. 13 м.
Вид битрейта : Переменный
Битрейт : 6144 Кбит/сек
Ширина : 720 пикселей
Высота : 576 пикселей
Соотношение сторон : 4:3
Частота кадров : 25,000 кадров/сек
Стандарт вещания : PAL
Цветовое пространство : YUV
Субдискретизация насыщенности : 4:2:0
Битовая глубина : 8 бит
Тип развёртки : Прогрессивная
Метод сжатия : С потерями
Бит/(Пиксели*Кадры) : 0.593
Размер потока : 3,13 Гбайт (95%)
Аудио
Идентификатор : 192 (0xC0)
Формат : MPEG Audio
Версия формата : Version 1
Профиль формата : Layer 2
Продолжительность : 1 ч. 13 м.
Вид битрейта : Постоянный
Битрейт : 192 Кбит/сек
Каналы : 2 канала
Частота : 48,0 КГц
Метод сжатия : С потерями
Размер потока : 101 Мбайт (3%)
-----------------------------------------------------------------------------------------------------------------------
Полное имя : G:\DVD\Два капитана (1976)\Два капитана-6.mpg
Формат : MPEG-PS
Размер файла : 2,83 Гбайт
Продолжительность : 1 ч. 3 м.
Общий поток : 6424 Кбит/сек
Видео
Идентификатор : 224 (0xE0)
Формат : MPEG Video
Версия формата : Version 2
Профиль формата : Main@Main
Параметр BVOP формата : Да
Параметр матрицы формата : По умолчанию
Продолжительность : 1 ч. 3 м.
Вид битрейта : Переменный
Битрейт : 6144 Кбит/сек
Ширина : 720 пикселей
Высота : 576 пикселей
Соотношение сторон : 4:3
Частота кадров : 25,000 кадров/сек
Стандарт вещания : PAL
Цветовое пространство : YUV
Субдискретизация насыщенности : 4:2:0
Битовая глубина : 8 бит
Тип развёртки : Прогрессивная
Метод сжатия : С потерями
Бит/(Пиксели*Кадры) : 0.593
Размер потока : 2,69 Гбайт (95%)
Аудио
Идентификатор : 192 (0xC0)
Формат : MPEG Audio
Версия формата : Version 1
Профиль формата : Layer 2
Продолжительность : 1 ч. 3 м.
Вид битрейта : Постоянный
Битрейт : 192 Кбит/сек
Каналы : 2 канала
Частота : 48,0 КГц
Метод сжатия : С потерями
Размер потока : 86,6 Мбайт (3%)

[Цитировать]



Показать сообщения:    

Текущее время: 10-Дек 02:12

Часовой пояс: UTC + 3


Вы не можете начинать темы
Вы не можете отвечать на сообщения
Вы не можете редактировать свои сообщения
Вы не можете удалять свои сообщения
Вы не можете голосовать в опросах
Вы не можете прикреплять файлы к сообщениям
Вы не можете скачивать файлы

!ВНИМАНИЕ!
Сайт не предоставляет электронные версии произведений, а занимается лишь коллекционированием и каталогизацией ссылок, присылаемых и публикуемых на форуме нашими читателями. Если вы являетесь правообладателем какого-либо представленного материала и не желаете, чтобы ссылка на него находилась в нашем каталоге, свяжитесь с нами, и мы незамедлительно удалим ее. Файлы для обмена на трекере предоставлены пользователями сайта, и администрация не несет ответственности за их содержание. Просьба не заливать файлы, защищенные авторскими правами, а также файлы нелегального содержания!