[ Сегодня идет свободное скачивание без начисления Download ]


Статистика раздачи
Нет
 
   
 
Top  
 
 
Савраска- Год выпуска: 1989
Жанр: детский фильм, комедия
Продолжительность: 01:03:06-Режиссёр: Владимир Волошин
В ролях: Дима Емельянов (Парамон Потапович Саврасов), Елена Кузовик (Серафима Шубина, новая ученица в классе), Татьяна Аксюта (Екатерина), Алла Одинг (Марья Степановна, учительница), Гриша Либерчук (Зорька), Андрей Каменцев (Коля Сенькин), Настя Горпинченко (Танька), Алла Подлевская (Галя Патрикеева), Виталик Карлинский (Рыжиков), Анна Варпаховская (тетя Люба, подруга Екатерины), Михаил Пахоменко (возница), Георгий Морозюк (редактор)
Описание: В южном портовом городе живет мальчик Парамон Саврасов. Внешне жизнь Савраски, как называли его друзья, проходит довольно-таки обыкновенно: школьные дела, домашние обязанности. Приближение 8 Марта нарушает обычный ритм жизни. Савраска решил раздобыть денег на подарок маме и однокласснице Серафиме.- -Качество видео: [Спасибо Cheef mate]
Формат: AVI
Видео: XviD, 640x480 (4:3), 25 fps, ~1507 kbps, 0.196 bpp
Аудио: MPEG Audio Layer 3, 48 kHz, 2 ch, 128 kbps-

MediaInfo

General
Complete name : J:\torrents\Савраска (1989) SATRip.avi
Format : AVI
Format/Info : Audio Video Interleave
File size : 743 MiB
Duration : 1h 3mn
Overall bit rate : 1 646 Kbps
Writing application : VirtualDubMod 1.5.10.3 | www.virtualdub-fr.org || (build 2550/release)
Writing library : VirtualDubMod build 2550/release
Video
ID : 0
Format : MPEG-4 Visual
Format profile : Advanced [email protected]
Format settings, BVOP : 1
Format settings, QPel : No
Format settings, GMC : No warppoints
Format settings, Matrix : Custom
Codec ID : XVID
Codec ID/Hint : XviD
Duration : 1h 3mn
Bit rate : 1 508 Kbps
Width : 640 pixels
Height : 480 pixels
Display aspect ratio : 4:3
Frame rate : 25.000 fps
Color space : YUV
Chroma subsampling : 4:2:0
Bit depth : 8 bits
Scan type : Progressive
Compression mode : Lossy
Bits/(Pixel*Frame) : 0.196
Stream size : 681 MiB (92%)
Writing library : XviD 65
Audio
ID : 1
Format : MPEG Audio
Format version : Version 1
Format profile : Layer 3
Mode : Joint stereo
Mode extension : MS Stereo
Codec ID : 55
Codec ID/Hint : MP3
Duration : 1h 3mn
Bit rate mode : Constant
Bit rate : 128 Kbps
Channel(s) : 2 channels
Sampling rate : 48.0 KHz
Compression mode : Lossy
Stream size : 57.8 MiB (8%)
Alignment : Aligned on interleaves
Interleave, duration : 40 ms (1.00 video frame)
Interleave, preload duration : 504 ms
Writing library : LAME3.99r
Encoding settings : -m j -V 4 -q 0 -lowpass 17 -b 128

Скриншоты

-Built with Flash Release

[Цитировать]



Показать сообщения:    

Текущее время: 05-Дек 21:35

Часовой пояс: UTC + 3


Вы не можете начинать темы
Вы не можете отвечать на сообщения
Вы не можете редактировать свои сообщения
Вы не можете удалять свои сообщения
Вы не можете голосовать в опросах
Вы не можете прикреплять файлы к сообщениям
Вы не можете скачивать файлы

!ВНИМАНИЕ!
Сайт не предоставляет электронные версии произведений, а занимается лишь коллекционированием и каталогизацией ссылок, присылаемых и публикуемых на форуме нашими читателями. Если вы являетесь правообладателем какого-либо представленного материала и не желаете, чтобы ссылка на него находилась в нашем каталоге, свяжитесь с нами, и мы незамедлительно удалим ее. Файлы для обмена на трекере предоставлены пользователями сайта, и администрация не несет ответственности за их содержание. Просьба не заливать файлы, защищенные авторскими правами, а также файлы нелегального содержания!