[ Сегодня идет свободное скачивание без начисления Download ]


Статистика раздачи
Нет
 
   
 
Top  
 
 
Удивительный мальчик
Жанр: детский, музыкальный, приключения
Год выпуска: 1970
Продолжительность: 01:23:15
Режиссёр: Александр Орлов (II), Леонид Пекур
В ролях: Никита Голубенцев, Зане Лиелдиджа, Валентин Никулин, Валентин Гафт, Юрий Саранцев, Леонид Каневский, Георгиос Совчис, Александр Вигдоров, Сергей Малишевский, Андрей Дрознин, Алла Будницкая, Станислав Бородокин, А. Газиев, Нина Крачковская, Владимир Козелков, Игорь Суровцев
Описание: Богач Бубнила, всеми способами выбивающий с горожан налоги, обнаруживает в лаборатории своего должника - Арта, профессора всяческих наук, механическую игрушку - мальчика с прозрачно-голубыми глазами. Он решает, что на этом изобретении он сможет заработать целое состояние. Но скоро у богача появляется конкурент - коварный доктор Капа, приказывающий своим бандитам отыскать и похитить робота. Доктор возмечтал узнать принцип, по которому собран этот робот, и создать тысячу точно таких же мальчиков. Подручные ему будут больше не нужны, так как один робот заменит десять гангстеров.
Текст песен - А. Найман.
Доп. информация: Запись потока *.ts со спутника EUTELSAT, ремукс в *.mpg программой VideoReDo.
Качество видео: DVB
Формат видео: MPEG-PS
Видео: MPEG Video, 720x576 (4 : 3), 25,000 кадров/сек, 4833 Кбит/сек
Аудио: MPEG Audio, 48,0 КГц, 192 Кбит/сек, 2 канала

MediaInfo

Общее
Полное имя : G:\Torrent\УДИВИТЕЛЬНЫЙ МАЛЬЧИК\УДИВИТЕЛЬНЫЙ МАЛЬЧИК (Ностальгия).mpg
Формат : MPEG-PS
Размер файла : 2,98 Гбайт
Продолжительность : 1 ч. 23 м.
Режим общего битрейта : Переменный
Общий поток : 5127 Кбит/сек
Видео
Идентификатор : 224 (0xE0)
Формат : MPEG Video
Версия формата : Version 2
Профиль формата : [email protected]
Параметр BVOP формата : Да
Параметр матрицы формата : Выборочная
Параметр GOP формата : M=3, N=36
Продолжительность : 1 ч. 23 м.
Вид битрейта : Переменный
Битрейт : 4833 Кбит/сек
Максимальный битрейт : 15,0 Мбит/сек
Ширина : 720 пикселей
Высота : 576 пикселей
Соотношение сторон : 4:3
Частота кадров : 25,000 кадров/сек
Стандарт вещания : PAL
Цветовое пространство : YUV
Субдискретизация насыщенности : 4:2:0
Битовая глубина : 8 бит
Тип развёртки : Чересстрочная
Порядок развёртки : Верхнее поле первое
Метод сжатия : С потерями
Бит/(Пиксели*Кадры) : 0.466
Размер потока : 2,81 Гбайт (94%)
Аудио
Идентификатор : 192 (0xC0)
Формат : MPEG Audio
Версия формата : Version 1
Профиль формата : Layer 2
Продолжительность : 1 ч. 23 м.
Вид битрейта : Постоянный
Битрейт : 192 Кбит/сек
Каналы : 2 канала
Частота : 48,0 КГц
Метод сжатия : С потерями
Размер потока : 114 Мбайт (4%)

Скриншоты

[Цитировать]



Показать сообщения:    

Текущее время: 05-Дек 21:45

Часовой пояс: UTC + 3


Вы не можете начинать темы
Вы не можете отвечать на сообщения
Вы не можете редактировать свои сообщения
Вы не можете удалять свои сообщения
Вы не можете голосовать в опросах
Вы не можете прикреплять файлы к сообщениям
Вы не можете скачивать файлы

!ВНИМАНИЕ!
Сайт не предоставляет электронные версии произведений, а занимается лишь коллекционированием и каталогизацией ссылок, присылаемых и публикуемых на форуме нашими читателями. Если вы являетесь правообладателем какого-либо представленного материала и не желаете, чтобы ссылка на него находилась в нашем каталоге, свяжитесь с нами, и мы незамедлительно удалим ее. Файлы для обмена на трекере предоставлены пользователями сайта, и администрация не несет ответственности за их содержание. Просьба не заливать файлы, защищенные авторскими правами, а также файлы нелегального содержания!