[ Сегодня идет свободное скачивание без начисления Download ]


Статистика раздачи
Нет
 
   
 
Top  
 
 
Рваные башмаки
Жанр: детский фильм, драма
Год выпуска: 1933
Продолжительность: 01:19:59
Режиссёр: Маргарита Барская
В ролях: Михаил Климов, Иван Новосельцев, Вера Алехина, Клавдия Половикова, Владимир Уральский, Лев Лосев, Николай Лосев, Анна Чекулаева
Описание: Трехлетний Бубби, сын безработного, разыскивает на помойках всякую рухлядь, которую можно было бы продать. На эти жалкие гроши вынуждена жить вся семья. Каждый день выходит Бубби "на работу" в огромных рваных башмаках своего старшего брата-школьника.
Доп. информация: Запись потока *.ts со спутника EUTELSAT, ремукс в *.mpg программой VideoReDo.
Качество видео: DVB
Формат видео: MPEG-TS
Видео: MPEG Video, 720x576 (4 : 3), 25,000 кадров/сек, 4 112 Кбит/сек
Аудио: MPEG Audio, 48,0 КГц, 192 Кбит/сек, 2 канала

MediaInfo

General
Complete name : E:\Torrent\РВАНЫЕ БАШМАКИ\РВАНЫЕ БАШМАКИ (Россия К).mpg
Format : MPEG-PS
File size : 2.45 GiB
Duration : 1h 19mn
Overall bit rate mode : Variable
Overall bit rate : 4 391 Kbps
Video
ID : 224 (0xE0)
Format : MPEG Video
Format version : Version 2
Format profile : [email protected]
Format settings, BVOP : Yes
Format settings, Matrix : Custom
Format settings, GOP : M=3, N=30
Duration : 1h 19mn
Bit rate mode : Variable
Bit rate : 4 112 Kbps
Maximum bit rate : 15.0 Mbps
Width : 720 pixels
Height : 576 pixels
Display aspect ratio : 4:3
Frame rate : 25.000 fps
Standard : PAL
Color space : YUV
Chroma subsampling : 4:2:0
Bit depth : 8 bits
Scan type : Interlaced
Scan order : Top Field First
Compression mode : Lossy
Bits/(Pixel*Frame) : 0.397
Stream size : 2.30 GiB (94%)
Audio
ID : 192 (0xC0)
Format : MPEG Audio
Format version : Version 1
Format profile : Layer 2
Duration : 1h 19mn
Bit rate mode : Constant
Bit rate : 192 Kbps
Channel(s) : 2 channels
Sampling rate : 48.0 KHz
Compression mode : Lossy
Delay relative to video : 12ms
Stream size : 110 MiB (4%)

[Цитировать]



Показать сообщения:    

Текущее время: 07-Дек 00:52

Часовой пояс: UTC + 3


Вы не можете начинать темы
Вы не можете отвечать на сообщения
Вы не можете редактировать свои сообщения
Вы не можете удалять свои сообщения
Вы не можете голосовать в опросах
Вы не можете прикреплять файлы к сообщениям
Вы не можете скачивать файлы

!ВНИМАНИЕ!
Сайт не предоставляет электронные версии произведений, а занимается лишь коллекционированием и каталогизацией ссылок, присылаемых и публикуемых на форуме нашими читателями. Если вы являетесь правообладателем какого-либо представленного материала и не желаете, чтобы ссылка на него находилась в нашем каталоге, свяжитесь с нами, и мы незамедлительно удалим ее. Файлы для обмена на трекере предоставлены пользователями сайта, и администрация не несет ответственности за их содержание. Просьба не заливать файлы, защищенные авторскими правами, а также файлы нелегального содержания!