[ Сегодня идет свободное скачивание без начисления Download ]


Статистика раздачи
Нет
 
   
 
Top  
 
 
Горя бояться - счастья не видать (2 серии)
Жанр: комедия, музыкальный, сказка
Год выпуска: 1973
Продолжительность: 01:05:31 + 01:04:19
Режиссёр: Виктор Туров
В ролях: Константин Адашевский, Наталья Воробьёва, Евгения Сабельникова, Гелий Сысоев, Вадим Александров, Бронюс Бабкаускас, Альгимантас Масюлис, Станислав Соколов, Валентин Букин, Евгений Перов, Юлиан Балмусов, Казимирас Виткус, Евгений Крючков, Н. Новичихин, А. Каплин
Описание: Телефильм по мотивам одноименной пьесы-сказки С.Маршака.
Хитрый Царь Дормидонт хочет избавиться от Горя-несчастья и предлагает солдату Ивану купить перстень, шпагу, даже корону, но обязательно Горе-злосчастье в придачу. Тот соглашается только на табакерку и просит Царя написать расписку. Иван уходит на войну, и в дороге обнаруживает рядом с собой Горе. Однако Иван не кручинится, да и некогда – в поход идет. Горе понимает, что тут ему поживиться нечем, и учит Ивана, как от него, Горя, избавиться. Но тот не хочет действовать обманом, а решает проучить Царя иным способом...
Доп. информация: Запись потока *.ts со спутника ABS-1, ремукс в *.mpg программой VideoReDo.
Качество видео: DVB
Формат видео: MPEG-PS
Видео: MPEG Video, 544x576 (4 : 3), 25,000 кадров/сек, 2447 Кбит/сек
Аудио: MPEG Audio, 48,0 КГц, 192 Кбит/сек, 2 канала

MediaInfo

Общее
Полное имя : D:\Torrent\Горя бояться - счастья не видать\Горя бояться - счастья не видать 1 (TPO).mpg
Формат : MPEG-PS
Размер файла : 1,23 Гбайт
Продолжительность : 1 ч. 5 м.
Режим общего битрейта : Переменный
Общий поток : 2692 Кбит/сек
Видео
Идентификатор : 224 (0xE0)
Формат : MPEG Video
Версия формата : Version 2
Профиль формата : Main@Main
Параметр BVOP формата : Да
Параметр матрицы формата : Выборочная
Параметр GOP формата : Variable
Продолжительность : 1 ч. 5 м.
Вид битрейта : Переменный
Битрейт : 2447 Кбит/сек
Максимальный битрейт : 15,0 Мбит/сек
Ширина : 544 пикселя
Высота : 576 пикселей
Соотношение сторон : 4:3
Частота кадров : 25,000 кадров/сек
Цветовое пространство : YUV
Субдискретизация насыщенности : 4:2:0
Битовая глубина : 8 бит
Тип развёртки : Чересстрочная
Порядок развёртки : Верхнее поле первое
Метод сжатия : С потерями
Бит/(Пиксели*Кадры) : 0.312
TimeCode_FirstFrame : 00:00:00:00
TimeCode_Source : Group of pictures header
Размер потока : 1,12 Гбайт (91%)
Аудио
Идентификатор : 192 (0xC0)
Формат : MPEG Audio
Версия формата : Version 1
Профиль формата : Layer 2
Продолжительность : 1 ч. 5 м.
Вид битрейта : Постоянный
Битрейт : 192 Кбит/сек
Каналы : 2 канала
Частота : 48,0 КГц
Метод сжатия : С потерями
Размер потока : 90,0 Мбайт (7%)
Общее
Полное имя : D:\Torrent\Горя бояться - счастья не видать\Горя бояться - счастья не видать 2 (TPO).mpg
Формат : MPEG-PS
Размер файла : 1,19 Гбайт
Продолжительность : 1 ч. 4 м.
Режим общего битрейта : Переменный
Общий поток : 2642 Кбит/сек
Видео
Идентификатор : 224 (0xE0)
Формат : MPEG Video
Версия формата : Version 2
Профиль формата : Main@Main
Параметр BVOP формата : Да
Параметр матрицы формата : Выборочная
Параметр GOP формата : Variable
Продолжительность : 1 ч. 4 м.
Вид битрейта : Переменный
Битрейт : 2398 Кбит/сек
Максимальный битрейт : 15,0 Мбит/сек
Ширина : 544 пикселя
Высота : 576 пикселей
Соотношение сторон : 4:3
Частота кадров : 25,000 кадров/сек
Цветовое пространство : YUV
Субдискретизация насыщенности : 4:2:0
Битовая глубина : 8 бит
Тип развёртки : Чересстрочная
Порядок развёртки : Верхнее поле первое
Метод сжатия : С потерями
Бит/(Пиксели*Кадры) : 0.306
TimeCode_FirstFrame : 00:00:00:00
TimeCode_Source : Group of pictures header
Размер потока : 1,08 Гбайт (91%)
Аудио
Идентификатор : 192 (0xC0)
Формат : MPEG Audio
Версия формата : Version 1
Профиль формата : Layer 2
Продолжительность : 1 ч. 4 м.
Вид битрейта : Постоянный
Битрейт : 192 Кбит/сек
Каналы : 2 канала
Частота : 48,0 КГц
Метод сжатия : С потерями
Размер потока : 88,3 Мбайт (7%)

Скриншоты

Скриншоты с анаморфом

Скриншоты без анаморфа

[Цитировать]



Показать сообщения:    

Текущее время: 11-Дек 09:01

Часовой пояс: UTC + 3


Вы не можете начинать темы
Вы не можете отвечать на сообщения
Вы не можете редактировать свои сообщения
Вы не можете удалять свои сообщения
Вы не можете голосовать в опросах
Вы не можете прикреплять файлы к сообщениям
Вы не можете скачивать файлы

!ВНИМАНИЕ!
Сайт не предоставляет электронные версии произведений, а занимается лишь коллекционированием и каталогизацией ссылок, присылаемых и публикуемых на форуме нашими читателями. Если вы являетесь правообладателем какого-либо представленного материала и не желаете, чтобы ссылка на него находилась в нашем каталоге, свяжитесь с нами, и мы незамедлительно удалим ее. Файлы для обмена на трекере предоставлены пользователями сайта, и администрация не несет ответственности за их содержание. Просьба не заливать файлы, защищенные авторскими правами, а также файлы нелегального содержания!