[ Сегодня идет свободное скачивание без начисления Download ]


Статистика раздачи
Скачал: [ 1 ]
 
   
 
Top  
 
 
Приключения Буратино- Страна: СССР / Беларусьфильм
Жанр: сказка, мюзикл
Год выпуска: 1975
Продолжительность: 2:13:26 (1:05:16 + 1:08:10 - 2 серии)
Cубтитры: русские
Режиссер: Леонид Нечаев
Композитор: Алексей Рыбников
В ролях: Дмитрий Иосифов, Татьяна Проценко, Рома Столкарц, Томас Аугустинас, Григорий Светлорусов, Николай Гринько, Владимир Этуш, Владимир Басов, Елена Санаева, Ролан Быков, Рина Зелёная, Юрий Катин-Ярцев, Баадур Цуладзе,Валентин Букин, Михаил Петров, Юрий Баталов, Владимир Грицевский, Вася Чумаков
Описание: Старый мастер Джузеппе вырезал из дерева забавного мальчика и назвал его Буратино. Деревянный мальчик ожил, но прежде чем он станет настоящим человеком, ему предстоит пройти через множество испытаний и приключений. Доброта, смелость и находчивость помогут Буратино победить жестокость и алчность, найти бескорыстных и верных друзей.
По мотивам сказки А.Н. Толстого "Золотой ключик, или приключения Буратино"

Доп. информация: Рип с , весьма несовершенного, как и все остальные на сегодняшний день, включая блурей, но лучшего по цветопередаче - в детской сказке считаю это главным.
Звук взят с - оригинальная моно дорожка; 5.1 в обоих изданиях - современная поделка, сделанная не лучшим образом, .
Субтитры взяты из интернета, подогнаны под тайминг и откорректированы.
>>> Скачать семпл <<<
Качество видео: DVDRip
Формат видео: MKV
Видео: MPEG4 Video (H264) 716x576 (4:3) 25fps 2121kbps
Аудио: AC3 2ch 224kbps Mono
Формат субтитров: softsub (SRT)-
-

MediaInfo

General
Unique ID : 235691206804749397691011395026742828895 (0xB15079AC0AC2EE6EA0C3A334A7425F5F)
Complete name : E:\[enc]\Буратино\Priklucheniya Buratino (1975) tRuAVC\Buratino - 1.mkv
Format : Matroska
File size : 1.07 GiB
Duration : 1h 5mn
Overall bit rate : 2 357 Kbps
Encoded date : UTC 2013-06-23 08:47:47
Writing application : mkvmerge v4.5.0 ('Speed of Light') built on Feb 1 2011 02:10:32
Writing library : libebml v1.2.0 + libmatroska v1.1.0
Attachment : Yes
Video
ID : 1
Format : AVC
Format/Info : Advanced Video Codec
Format profile : [email protected]
Format settings, CABAC : Yes
Format settings, ReFrames : 16 frames
Codec ID : V_MPEG4/ISO/AVC
Duration : 1h 5mn
Bit rate : 2 121 Kbps
Width : 716 pixels
Height : 576 pixels
Display aspect ratio : 4:3
Original display aspect ratio : 4:3
Frame rate : 25.000 fps
Color space : YUV
Chroma subsampling : 4:2:0
Bit depth : 8 bits
Scan type : Progressive
Bits/(Pixel*Frame) : 0.206
Stream size : 974 MiB (89%)
Title : tRuAVC / Д-Видео
Writing library : x264 core 133 r2334 a3ac64b
Encoding settings : cabac=1 / ref=16 / deblock=1:1:1 / analyse=0x3:0x133 / me=tesa / subme=11 / psy=1 / psy_rd=1.00:0.30 / mixed_ref=1 / me_range=32 / chroma_me=1 / trellis=2 / 8x8dct=1 / cqm=0 / deadzone=21,11 / fast_pskip=0 / chroma_qp_offset=-4 / threads=16 / lookahead_threads=4 / sliced_threads=0 / nr=0 / decimate=0 / interlaced=0 / bluray_compat=0 / constrained_intra=0 / bframes=16 / b_pyramid=2 / b_adapt=2 / b_bias=0 / direct=3 / weightb=1 / open_gop=0 / weightp=2 / keyint=500 / keyint_min=25 / scenecut=40 / intra_refresh=0 / rc_lookahead=100 / rc=2pass / mbtree=1 / bitrate=2121 / ratetol=1.0 / qcomp=0.80 / qpmin=0 / qpmax=69 / qpstep=4 / cplxblur=20.0 / qblur=0.5 / vbv_maxrate=50000 / vbv_bufsize=62500 / nal_hrd=none / ip_ratio=1.40 / aq=1:0.50
Language : Russian
Matrix coefficients : BT.709-5, BT.1361, IEC 61966-2-4 709, SMPTE RP177
Audio
ID : 2
Format : AC-3
Format/Info : Audio Coding 3
Mode extension : CM (complete main)
Codec ID : A_AC3
Duration : 1h 5mn
Bit rate mode : Constant
Bit rate : 224 Kbps
Channel(s) : 2 channels
Channel positions : Front: L R
Sampling rate : 48.0 KHz
Bit depth : 16 bits
Compression mode : Lossy
Delay relative to video : 10s 702ms
Stream size : 105 MiB (10%)
Title : AC3 2ch 224 Mono / CP Digital
Language : Russian
Text
ID : 3
Format : UTF-8
Codec ID : S_TEXT/UTF8
Codec ID/Info : UTF-8 Plain Text
Language : Russian
Menu
00:00:00.000 : en:Chapter 1
00:00:10.720 : en:Chapter 2
00:02:19.720 : en:Chapter 3
00:07:25.120 : en:Chapter 4
00:11:55.120 : en:Chapter 5
00:20:03.520 : en:Chapter 6
00:26:37.120 : en:Chapter 7
00:33:41.320 : en:Chapter 8
00:39:53.920 : en:Chapter 9
00:46:56.920 : en:Chapter 10
00:55:12.520 : en:Chapter 11
01:02:53.000 : en:Chapter 12
01:04:14.600 : en:Chapter 13

x264 log

y4m [info]: 716x576p 16:15 @ 25/1 fps (cfr)
x264 [warning]: --psnr used with psy on: results will be invalid!
x264 [warning]: --tune psnr should be used if attempting to benchmark psnr!
x264 [info]: using SAR=16/15
x264 [info]: using cpu capabilities: MMX2 SSE2Fast SSSE3 SSE4.2
x264 [info]: profile High, level 4.1
x264 [info]: frame I:1022 Avg QP:20.89 size: 40357 PSNR Mean Y:45.69 U:51.22
V:50.51 Avg:46.81 Global:46.64
x264 [info]: frame P:39105 Avg QP:23.69 size: 20706 PSNR Mean Y:43.42 U:49.41
V:48.57 Avg:44.59 Global:44.34
x264 [info]: frame B:160020 Avg QP:25.45 size: 7946 PSNR Mean Y:42.26 U:49.06
V:48.07 Avg:43.51 Global:43.23
x264 [info]: consecutive B-frames: 1.5% 1.5% 8.7% 2.0% 2.1% 83.9% 0.3% 0.
0% 0.0% 0.0% 0.0% 0.0% 0.0% 0.0% 0.0% 0.0% 0.0%
x264 [info]: mb I I16..4: 7.0% 81.7% 11.3%
x264 [info]: mb P I16..4: 1.8% 20.3% 1.5% P16..4: 35.6% 30.8% 8.3% 0.8% 0
.1% skip: 0.8%
x264 [info]: mb B I16..4: 0.3% 2.8% 0.2% B16..8: 47.3% 15.6% 2.2% direct:
7.4% skip:24.1% L0:42.2% L1:48.6% BI: 9.3%
x264 [info]: 8x8 transform intra:85.4% inter:76.3%
x264 [info]: direct mvs spatial:99.2% temporal:0.8%
x264 [info]: coded y,uvDC,uvAC intra: 84.2% 84.0% 29.2% inter: 34.6% 35.6% 5.6%
x264 [info]: i16 v,h,dc,p: 16% 18% 8% 58%
x264 [info]: i8 v,h,dc,ddl,ddr,vr,hd,vl,hu: 13% 7% 5% 9% 11% 14% 12% 15% 14%
x264 [info]: i4 v,h,dc,ddl,ddr,vr,hd,vl,hu: 14% 8% 3% 8% 14% 16% 13% 13% 12%
x264 [info]: i8c dc,h,v,p: 27% 27% 25% 21%
x264 [info]: Weighted P-Frames: Y:38.1% UV:27.4%
x264 [info]: ref P L0: 40.9% 9.6% 16.2% 7.9% 5.9% 4.7% 3.8% 2.2% 1.9% 1.
6% 1.3% 1.1% 1.0% 0.8% 0.7% 0.4%
x264 [info]: ref B L0: 80.9% 8.3% 3.7% 1.8% 1.3% 1.0% 0.8% 0.5% 0.4% 0.
3% 0.3% 0.2% 0.2% 0.1% 0.1%
x264 [info]: ref B L1: 95.8% 4.2%
x264 [info]: SSIM Mean Y:0.9749759 (16.016db)
x264 [info]: PSNR Mean Y:42.505 U:49.140 V:48.182 Avg:43.736 Global:43.438 kb/s:
2120.96
encoded 200147 frames, 6.98 fps, 2120.96 kb/s

сравнение с исходником

Семпл: Rip | Source
http://screenshotcomparison.com/comparison/27607
Rip | Source






сравнение с раздачей Slava47

http://screenshotcomparison.com/comparison/29547
Slava47 | nonsens112








-Внимание! Если у вас что-то не проигрывается, не гудит, не свистит: большая просьба ознакомиться с содержимым составленного для вашего удобства FAQ. Вопросы, ответы на которые есть в FAQ, будут игнорироваться.

FAQ по просмотру MKV/h.264/AAC/от shellgen
















- / / Если в релизе не открываются скриншоты, постер, нет сида или нашли ошибку, пишите в Л.С.

[Цитировать]



Показать сообщения:    

Текущее время: 04-Дек 21:26

Часовой пояс: UTC + 3


Вы не можете начинать темы
Вы не можете отвечать на сообщения
Вы не можете редактировать свои сообщения
Вы не можете удалять свои сообщения
Вы не можете голосовать в опросах
Вы не можете прикреплять файлы к сообщениям
Вы не можете скачивать файлы

!ВНИМАНИЕ!
Сайт не предоставляет электронные версии произведений, а занимается лишь коллекционированием и каталогизацией ссылок, присылаемых и публикуемых на форуме нашими читателями. Если вы являетесь правообладателем какого-либо представленного материала и не желаете, чтобы ссылка на него находилась в нашем каталоге, свяжитесь с нами, и мы незамедлительно удалим ее. Файлы для обмена на трекере предоставлены пользователями сайта, и администрация не несет ответственности за их содержание. Просьба не заливать файлы, защищенные авторскими правами, а также файлы нелегального содержания!