[ Сегодня идет свободное скачивание без начисления Download ]


Статистика раздачи
Нет
 
   
 
Top  
 
 
Информация о фильме
Название: Слишком крут для неудачи
Оригинальное название: Too Big to Fail
Год выхода: 2011
Жанр: драма
Режиссер: Кёртис Хэнсон /Curtis Hanson/
В ролях: Уильям Хёрт /William Hurt/, Эдвард Эснер /Edward Asner/, Билли Крудап /Billy Crudup/, Пол Джаматти /Paul Giamatti/, Тофер Грейс /Topher Grace/, Синтия Никсон /Cynthia Nixon/, Билл Пуллман /Bill Pullman/, Тони Шэлуб /Tony Shalhoub/, Джеймс Вудс /James Woods/, Джон Хёрд /John Heard/
О фильме:
Хроника событий, приведших к финансовому кризису 2008 года, с министром финансов США Генри Полсоном в центре сюжета.

Страна: США
Студия: Deuce Three Productions / HBO Films / Spring Creek Productions
Продолжительность: 01:38:42
Перевод: Профессиональный (двухголосый, закадровый) - Кубик в кубе
Файл
Кодек: H.264
Качество: BDRip 720p
Видео: 1280x720 at 23.976 fps, [email protected], 2pass, 4834 kbps avg
Аудио#1: Russian: 48 kHz, AC3, 3/2 (L,C,R,l,r) + LFE ch, ~640.00 kbps avg |Двухголосый закадровый, Кубик в кубе|
Аудио#2: English: 48 kHz, AC3, 3/2 (L,C,R,l,r) + LFE ch, ~640.00 kbps avg |Оригинал|
Субтитры: Russian (Forced), English (Full)

Скриншоты


MediaInfo

General
Complete name : Too.Big.to.Fail.2011.720p.BluRay.Rus.Eng.HDCLUB.mkv
Format : Matroska
Format version : Version 2
File size : 4.22 GiB
Duration : 1h 38mn
Overall bit rate : 6 117 Kbps
Movie name : Too Big to Fail (2011) - Release for HDCLUB
Encoded date : UTC 2012-06-03 05:23:44
Writing application : mkvmerge v3.4.0 ('Rapunzel') сборка от May 15 2010 09:38:20
Writing library : libebml v0.8.0 + libmatroska v0.9.0
Video
ID : 1
Format : AVC
Format/Info : Advanced Video Codec
Format profile : [email protected]
Format settings, CABAC : Yes
Format settings, ReFrames : 9 frames
Codec ID : V_MPEG4/ISO/AVC
Duration : 1h 38mn
Bit rate : 4 834 Kbps
Width : 1 280 pixels
Height : 720 pixels
Display aspect ratio : 16:9
Frame rate mode : Constant
Frame rate : 23.976 fps
Color space : YUV
Chroma subsampling : 4:2:0
Bit depth : 8 bits
Scan type : Progressive
Bits/(Pixel*Frame) : 0.219
Stream size : 3.25 GiB (77%)
Title : Release for HDCLUB
Writing library : x264 core 122 r2184 5c85e0a
Encoding settings : cabac=1 / ref=9 / deblock=1:-3:-3 / analyse=0x3:0x133 / me=umh / subme=11 / psy=1 / psy_rd=1.05:0.05 / mixed_ref=1 / me_range=32 / chroma_me=1 / trellis=2 / 8x8dct=1 / cqm=0 / deadzone=21,11 / fast_pskip=0 / chroma_qp_offset=-3 / threads=12 / sliced_threads=0 / nr=0 / decimate=1 / interlaced=0 / bluray_compat=0 / constrained_intra=0 / bframes=8 / b_pyramid=2 / b_adapt=2 / b_bias=0 / direct=3 / weightb=1 / open_gop=0 / weightp=2 / keyint=250 / keyint_min=23 / scenecut=40 / intra_refresh=0 / rc_lookahead=250 / rc=2pass / mbtree=1 / bitrate=4834 / ratetol=1.0 / qcomp=0.60 / qpmin=0 / qpmax=69 / qpstep=4 / cplxblur=20.0 / qblur=0.5 / ip_ratio=1.40 / aq=1:0.90
Language : English
Default : Yes
Forced : No
Audio #1
ID : 2
Format : AC-3
Format/Info : Audio Coding 3
Mode extension : CM (complete main)
Format settings, Endianness : Big
Codec ID : A_AC3
Duration : 1h 38mn
Bit rate mode : Constant
Bit rate : 640 Kbps
Channel(s) : 6 channels
Channel positions : Front: L C R, Side: L R, LFE
Sampling rate : 48.0 KHz
Bit depth : 16 bits
Compression mode : Lossy
Stream size : 452 MiB (10%)
Title : AC3 5.1ch 640 kbps - Двухголосый
Language : Russian
Default : Yes
Forced : No
Audio #2
ID : 3
Format : AC-3
Format/Info : Audio Coding 3
Mode extension : CM (complete main)
Format settings, Endianness : Big
Codec ID : A_AC3
Duration : 1h 38mn
Bit rate mode : Constant
Bit rate : 640 Kbps
Channel(s) : 6 channels
Channel positions : Front: L C R, Side: L R, LFE
Sampling rate : 48.0 KHz
Bit depth : 16 bits
Compression mode : Lossy
Stream size : 452 MiB (10%)
Title : AC3 5.1ch 640 kbps
Language : English
Default : No
Forced : No
Text #1
ID : 4
Format : UTF-8
Codec ID : S_TEXT/UTF8
Codec ID/Info : UTF-8 Plain Text
Title : Russian
Language : Russian
Default : Yes
Forced : No
Text #2
ID : 5
Format : UTF-8
Codec ID : S_TEXT/UTF8
Codec ID/Info : UTF-8 Plain Text
Title : English
Language : English
Default : No
Forced : No
Menu
00:00:00.000 : :Chapter 01
00:14:49.597 : :Chapter 02
00:23:17.646 : :Chapter 03
00:32:07.925 : :Chapter 04
00:43:15.217 : :Chapter 05
00:51:08.440 : :Chapter 06
01:02:31.122 : :Chapter 07
01:11:19.774 : :Chapter 08
01:25:47.517 : :Chapter 09
01:36:10.180 : :Chapter 10
01:38:42.374 : :Chapter 11

Дополнительная информация

ЦитатаКто-то писал: Сохранены оригинальные главы как на Blu-ray.
Дорожка №1 получена наложением чистого голоса на центр декодированного DTS-HD MA. За чистый голос и русские субтитры спасибо ЛП.
В переводе присутствует ненормативная лексика.

[Цитировать]



Показать сообщения:    

Текущее время: 05-Дек 07:26

Часовой пояс: UTC + 3


Вы не можете начинать темы
Вы не можете отвечать на сообщения
Вы не можете редактировать свои сообщения
Вы не можете удалять свои сообщения
Вы не можете голосовать в опросах
Вы не можете прикреплять файлы к сообщениям
Вы не можете скачивать файлы

!ВНИМАНИЕ!
Сайт не предоставляет электронные версии произведений, а занимается лишь коллекционированием и каталогизацией ссылок, присылаемых и публикуемых на форуме нашими читателями. Если вы являетесь правообладателем какого-либо представленного материала и не желаете, чтобы ссылка на него находилась в нашем каталоге, свяжитесь с нами, и мы незамедлительно удалим ее. Файлы для обмена на трекере предоставлены пользователями сайта, и администрация не несет ответственности за их содержание. Просьба не заливать файлы, защищенные авторскими правами, а также файлы нелегального содержания!