[ Сегодня идет свободное скачивание без начисления Download ]


Статистика раздачи
Нет
 
   
 
 
 
-VA - Весенний марафон № 167 / (Новый Dance Хит Парад) (2015) WEBRip- Год выпуска: 2015
Жанр: Pop, Dance, Latino, Country, House, Soul, Reggaeton
Контейнер: MP4
Кол-во клипов: 25
Продолжительность: 01:28:05
Описание:
Весенние (06.05.2015) поп. новинки зарубежной эстрады. Не пропустите, держите новые треки.
Видеокодек: AVC/H.264
Битрейт видео: 4.805 ~ 2.505 kbps avg, 0.093 - 0.050 bit.pixel
Размер кадра: 1920x1080 (16:9), 25.000 fps
Качество видео: WEBRip
Аудиокодек: AAC, 2.0
Битрейт аудио: 108 - 254 Kbps avg

Треклист:

1. Ashley Monroe - On To Something Good (Official Video) (00:03:53)
2. Bob Sinclar Ft. Dawn Tallman - Feel The Vibe (Official Video) (00:03:20)
3. Brett Eldredge - Lose My Mind (Official Video) (00:02:40)
4. Carina Dahl - (Come a Little) Closer (Official Video) (00:03:41)
5. Deorro ft. Chris Brown - Five More Hours (Official Video) (00:04:46)
6. DKB Ft. Pancho Cespedes & Angel Lopez - Quien Ser? (Official Video) (00:04:45)
7. EAD3N - Earned It (The Weeknd) (Official Video) (00:04:09)
8. Emily Normann - Dis Moi Tout (Official Video) (00:04:03)
9. Hopium - Right Now (Official Video) (00:03:39)
10. Jazzy Jo - Maea (Official Video) (00:03:40)
11. Lana Del Rey - West Coast (ZHU Remix) (Official Video) (00:04:20)
12. Lena - Traffic Lights (Official Video) (00:02:47)
13. Michelle Williams - Believe In Me (Official Video) (00:03:39)
14. Nicole Cherry - Pana Vine Vineri (Official Video) (00:03:31)
15. Prince Royce ft. Pitbull - Back It Up (Official Lyric Video) (00:03:22)
16. Radio Killer - Headphones (Official Video) (00:03:43)
17. Sammi Sachez - Talk (Official Video) (00:03:23)
18. Sevyn Streeter - 4th Street (Official Video) (00:04:55)
19. Sharon Doorson - Electrify (Official Video) (00:03:20)
20. Sweet California - Hey Mickey (Official Video) (00:03:16)
21. Tantrum Desire ft. Solah - Oblivion (Official Video) (00:04:02)
22. The Hardkiss - Organ (Official Video) (00:03:19)
23. Twiins - Sagapo (Official Video) (00:03:31)
24. Twin Shadow - I"m Ready (Official Video) (00:03:39)
25. Yamira ft. Mattyas - Waterfalls (Official Video) (00:03:19)

Mediainfo:

Общее
Полное имя                       : E:\VA - Весенний марафон № 167 (Новый Dance Хит Парад)\Ashley Monroe - On To Something Good (Official Video).mp4
Формат                           : MPEG-4
Профиль формата                  : Base Media
Идентификатор кодека             : isom
Размер файла                     : 127 Мбайт
Продолжительность                : 3 м. 53 с.
Общий поток                      : 4543 Кбит/сек
Дата кодирования                 : UTC 2015-05-03 22:58:34
Дата пометки                     : UTC 2015-05-03 22:58:34
Программа кодирования            : Lavf54.63.104
Видео
Идентификатор                    : 1
Формат                           : AVC
Формат/Информация                : Advanced Video Codec
Профиль формата                  : [url=mailto:Main@L4.0]Main@L4.0[/url]
Параметр CABAC формата           : Да
Параметр ReFrames формата        : 1 кадр
Идентификатор кодека             : avc1
Идентификатор кодека/Информация  : Advanced Video Coding
Продолжительность                : 3 м. 53 с.
Вид битрейта                     : Переменный
Битрейт                          : 4496 Кбит/сек
Ширина                           : 1920 пикс.
Высота                           : 1080 пикс.
Соотношение сторон               : 16:9
Режим частоты кадров             : Постоянный
Частота кадров                   : 25,000 кадр/сек
Цветовое пространство            : YUV
Подвыборка цветности             : 4:2:0
Битовая глубина                  : 8 бит
Тип развёртки                    : Прогрессивная
Бит/(Пиксели*Кадры)              : 0.087
Размер потока                    : 122 Мбайт (97%)
Библиотека кодирования           : x264 core 129
Настройки программы              : cabac=1 / ref=1 / deblock=1:0:0 / analyse=0x1:0x131 / me=dia / subme=2 / psy=1 / psy_rd=1.00:0.00 / mixed_ref=0 / me_range=16 / chroma_me=1 / trellis=0 / 8x8dct=0 / cqm=0 / deadzone=21,11 / fast_pskip=1 / chroma_qp_offset=0 / threads=2 / lookahead_threads=1 / sliced_threads=0 / nr=0 / decimate=1 / interlaced=0 / bluray_compat=0 / constrained_intra=0 / bframes=0 / weightp=2 / keyint=250 / keyint_min=25 / scenecut=40 / intra_refresh=0 / rc_lookahead=40 / rc=abr / mbtree=1 / bitrate=4496 / ratetol=1.0 / qcomp=0.60 / qpmin=10 / qpmax=51 / qpstep=4 / ip_ratio=1.41 / aq=1:1.00
Дата кодирования                 : UTC 2015-05-03 22:58:34
Дата пометки                     : UTC 2015-05-03 22:58:34
Аудио
Идентификатор                    : 2
Формат                           : AAC
Формат/Информация                : Advanced Audio Codec
Профиль формата                  : LC
Идентификатор кодека             : 40
Продолжительность                : 3 м. 53 с.
Вид битрейта                     : Переменный
Битрейт                          : 148 Кбит/сек
Максимальный битрейт             : 176,4 Кбит/сек
Каналы                           : 2 канала
Расположение каналов             : Front: L R
Частота                          : 44,1 КГц
Метод сжатия                     : С потерями
Размер потока                    : 4,14 Мбайт (3%)
Дата кодирования                 : UTC 2015-05-03 22:58:34
Дата пометки                     : UTC 2015-05-03 22:58:34
Общее
Полное имя                       : E:\VA - Весенний марафон № 167 (Новый Dance Хит Парад)\Bob Sinclar Ft. Dawn Tallman - Feel The Vibe (Official Video).mp4
Формат                           : MPEG-4
Профиль формата                  : Base Media
Идентификатор кодека             : isom
Размер файла                     : 110 Мбайт
Продолжительность                : 3 м. 20 с.
Общий поток                      : 4593 Кбит/сек
Дата кодирования                 : UTC 2015-05-04 11:52:20
Дата пометки                     : UTC 2015-05-04 11:52:20
Программа кодирования            : Lavf54.63.104
Видео
Идентификатор                    : 1
Формат                           : AVC
Формат/Информация                : Advanced Video Codec
Профиль формата                  : [url=mailto:Main@L4.0]Main@L4.0[/url]
Параметр CABAC формата           : Да
Параметр ReFrames формата        : 1 кадр
Идентификатор кодека             : avc1
Идентификатор кодека/Информация  : Advanced Video Coding
Продолжительность                : 3 м. 20 с.
Вид битрейта                     : Переменный
Битрейт                          : 4496 Кбит/сек
Ширина                           : 1920 пикс.
Высота                           : 1080 пикс.
Соотношение сторон               : 16:9
Режим частоты кадров             : Постоянный
Частота кадров                   : 25,000 кадр/сек
Цветовое пространство            : YUV
Подвыборка цветности             : 4:2:0
Битовая глубина                  : 8 бит
Тип развёртки                    : Прогрессивная
Бит/(Пиксели*Кадры)              : 0.087
Размер потока                    : 106 Мбайт (97%)
Библиотека кодирования           : x264 core 129
Настройки программы              : cabac=1 / ref=1 / deblock=1:0:0 / analyse=0x1:0x131 / me=dia / subme=2 / psy=1 / psy_rd=1.00:0.00 / mixed_ref=0 / me_range=16 / chroma_me=1 / trellis=0 / 8x8dct=0 / cqm=0 / deadzone=21,11 / fast_pskip=1 / chroma_qp_offset=0 / threads=2 / lookahead_threads=1 / sliced_threads=0 / nr=0 / decimate=1 / interlaced=0 / bluray_compat=0 / constrained_intra=0 / bframes=0 / weightp=2 / keyint=250 / keyint_min=25 / scenecut=40 / intra_refresh=0 / rc_lookahead=40 / rc=abr / mbtree=1 / bitrate=4496 / ratetol=1.0 / qcomp=0.60 / qpmin=10 / qpmax=51 / qpstep=4 / ip_ratio=1.41 / aq=1:1.00
Дата кодирования                 : UTC 2015-05-04 11:52:20
Дата пометки                     : UTC 2015-05-04 11:52:20
Аудио
Идентификатор                    : 2
Формат                           : AAC
Формат/Информация                : Advanced Audio Codec
Профиль формата                  : LC
Идентификатор кодека             : 40
Продолжительность                : 3 м. 20 с.
Вид битрейта                     : Переменный
Битрейт                          : 152 Кбит/сек
Максимальный битрейт             : 176,4 Кбит/сек
Каналы                           : 2 канала
Расположение каналов             : Front: L R
Частота                          : 44,1 КГц
Метод сжатия                     : С потерями
Размер потока                    : 3,61 Мбайт (3%)
Дата кодирования                 : UTC 2015-05-04 11:52:20
Дата пометки                     : UTC 2015-05-04 11:52:20
Общее
Полное имя                       : E:\VA - Весенний марафон № 167 (Новый Dance Хит Парад)\Brett Eldredge - Lose My Mind (Official Video).MP4
Формат                           : MPEG-4
Профиль формата                  : Base Media
Идентификатор кодека             : isom
Размер файла                     : 50,4 Мбайт
Продолжительность                : 2 м. 40 с.
Общий поток                      : 2635 Кбит/сек
Дата кодирования                 : UTC 2015-04-19 03:19:53
Дата пометки                     : UTC 2015-04-19 03:19:53
Видео
Идентификатор                    : 1
Формат                           : AVC
Формат/Информация                : Advanced Video Codec
Профиль формата                  : [url=mailto:High@L4.0]High@L4.0[/url]
Параметр CABAC формата           : Да
Параметр ReFrames формата        : 2 кадра
Параметры GOP формата            : M=3, N=10
Идентификатор кодека             : avc1
Идентификатор кодека/Информация  : Advanced Video Coding
Продолжительность                : 2 м. 40 с.
Вид битрейта                     : Переменный
Битрейт                          : 2505 Кбит/сек
Ширина                           : 1920 пикс.
Высота                           : 1080 пикс.
Соотношение сторон               : 16:9
Режим частоты кадров             : Переменный
Частота кадров                   : 23,976 кадр/сек
Минимальная частота кадров       : 23,974 кадр/сек
Максимальная частота кадров      : 23,981 кадр/сек
Цветовое пространство            : YUV
Подвыборка цветности             : 4:2:0
Битовая глубина                  : 8 бит
Тип развёртки                    : Прогрессивная
Бит/(Пиксели*Кадры)              : 0.050
Размер потока                    : 47,9 Мбайт (95%)
Дата кодирования                 : UTC 2015-04-19 03:19:53
Дата пометки                     : UTC 2015-04-19 03:19:53
Аудио
Идентификатор                    : 2
Формат                           : AAC
Формат/Информация                : Advanced Audio Codec
Профиль формата                  : LC
Идентификатор кодека             : 40
Продолжительность                : 2 м. 40 с.
Вид битрейта                     : Переменный
Битрейт                          : 126 Кбит/сек
Каналы                           : 2 канала
Расположение каналов             : Front: L R
Частота                          : 44,1 КГц
Метод сжатия                     : С потерями
Размер потока                    : 2,40 Мбайт (5%)
Дата кодирования                 : UTC 2015-04-19 03:19:00
Дата пометки                     : UTC 2015-04-19 03:19:00
Общее
Полное имя                       : E:\VA - Весенний марафон № 167 (Новый Dance Хит Парад)\Carina Dahl - (Come a Little) Closer (Official Video).mp4
Формат                           : MPEG-4
Профиль формата                  : Base Media
Идентификатор кодека             : isom
Размер файла                     : 121 Мбайт
Продолжительность                : 3 м. 41 с.
Общий поток                      : 4590 Кбит/сек
Дата кодирования                 : UTC 2015-05-04 13:00:55
Дата пометки                     : UTC 2015-05-04 13:00:55
Программа кодирования            : Lavf54.63.104
Видео
Идентификатор                    : 1
Формат                           : AVC
Формат/Информация                : Advanced Video Codec
Профиль формата                  : [url=mailto:Main@L4.0]Main@L4.0[/url]
Параметр CABAC формата           : Да
Параметр ReFrames формата        : 1 кадр
Идентификатор кодека             : avc1
Идентификатор кодека/Информация  : Advanced Video Coding
Продолжительность                : 3 м. 41 с.
Вид битрейта                     : Переменный
Битрейт                          : 4496 Кбит/сек
Ширина                           : 1920 пикс.
Высота                           : 1080 пикс.
Соотношение сторон               : 16:9
Режим частоты кадров             : Постоянный
Частота кадров                   : 25,000 кадр/сек
Цветовое пространство            : YUV
Подвыборка цветности             : 4:2:0
Битовая глубина                  : 8 бит
Тип развёртки                    : Прогрессивная
Бит/(Пиксели*Кадры)              : 0.087
Размер потока                    : 117 Мбайт (97%)
Библиотека кодирования           : x264 core 129
Настройки программы              : cabac=1 / ref=1 / deblock=1:0:0 / analyse=0x1:0x131 / me=dia / subme=2 / psy=1 / psy_rd=1.00:0.00 / mixed_ref=0 / me_range=16 / chroma_me=1 / trellis=0 / 8x8dct=0 / cqm=0 / deadzone=21,11 / fast_pskip=1 / chroma_qp_offset=0 / threads=2 / lookahead_threads=1 / sliced_threads=0 / nr=0 / decimate=1 / interlaced=0 / bluray_compat=0 / constrained_intra=0 / bframes=0 / weightp=2 / keyint=250 / keyint_min=25 / scenecut=40 / intra_refresh=0 / rc_lookahead=40 / rc=abr / mbtree=1 / bitrate=4496 / ratetol=1.0 / qcomp=0.60 / qpmin=10 / qpmax=51 / qpstep=4 / ip_ratio=1.41 / aq=1:1.00
Дата кодирования                 : UTC 2015-05-04 13:00:55
Дата пометки                     : UTC 2015-05-04 13:00:55
Аудио
Идентификатор                    : 2
Формат                           : AAC
Формат/Информация                : Advanced Audio Codec
Профиль формата                  : LC
Идентификатор кодека             : 40
Продолжительность                : 3 м. 41 с.
Вид битрейта                     : Переменный
Битрейт                          : 144 Кбит/сек
Максимальный битрейт             : 176,4 Кбит/сек
Каналы                           : 2 канала
Расположение каналов             : Front: L R
Частота                          : 44,1 КГц
Метод сжатия                     : С потерями
Размер потока                    : 3,78 Мбайт (3%)
Дата кодирования                 : UTC 2015-05-04 13:00:55
Дата пометки                     : UTC 2015-05-04 13:00:55
Общее
Полное имя                       : E:\VA - Весенний марафон № 167 (Новый Dance Хит Парад)\Deorro ft. Chris Brown - Five More Hours (Official Video).MP4
Формат                           : MPEG-4
Профиль формата                  : Base Media
Идентификатор кодека             : isom
Размер файла                     : 141 Мбайт
Продолжительность                : 4 м. 46 с.
Общий поток                      : 4133 Кбит/сек
Дата кодирования                 : UTC 2015-04-29 20:11:05
Дата пометки                     : UTC 2015-04-29 20:11:05
Видео
Идентификатор                    : 1
Формат                           : AVC
Формат/Информация                : Advanced Video Codec
Профиль формата                  : [url=mailto:High@L4.0]High@L4.0[/url]
Параметр CABAC формата           : Да
Параметр ReFrames формата        : 2 кадра
Идентификатор кодека             : avc1
Идентификатор кодека/Информация  : Advanced Video Coding
Продолжительность                : 4 м. 46 с.
Вид битрейта                     : Переменный
Битрейт                          : 4003 Кбит/сек
Ширина                           : 1920 пикс.
Высота                           : 1080 пикс.
Соотношение сторон               : 16:9
Режим частоты кадров             : Переменный
Частота кадров                   : 23,976 кадр/сек
Минимальная частота кадров       : 23,974 кадр/сек
Максимальная частота кадров      : 23,981 кадр/сек
Цветовое пространство            : YUV
Подвыборка цветности             : 4:2:0
Битовая глубина                  : 8 бит
Тип развёртки                    : Прогрессивная
Бит/(Пиксели*Кадры)              : 0.081
Размер потока                    : 137 Мбайт (97%)
Дата кодирования                 : UTC 2015-04-29 20:11:05
Дата пометки                     : UTC 2015-04-29 20:11:05
Аудио
Идентификатор                    : 2
Формат                           : AAC
Формат/Информация                : Advanced Audio Codec
Профиль формата                  : LC
Идентификатор кодека             : 40
Продолжительность                : 4 м. 46 с.
Вид битрейта                     : Переменный
Битрейт                          : 126 Кбит/сек
Каналы                           : 2 канала
Расположение каналов             : Front: L R
Частота                          : 44,1 КГц
Метод сжатия                     : С потерями
Размер потока                    : 4,29 Мбайт (3%)
Дата кодирования                 : UTC 2015-04-29 20:07:30
Дата пометки                     : UTC 2015-04-29 20:07:30
Общее
Полное имя                       : E:\VA - Весенний марафон № 167 (Новый Dance Хит Парад)\DKB Ft. Pancho Cespedes & Angel Lopez - Quien Ser? (Official Video).mp4
Формат                           : MPEG-4
Профиль формата                  : Base Media
Идентификатор кодека             : isom
Размер файла                     : 160 Мбайт
Продолжительность                : 4 м. 45 с.
Общий поток                      : 4687 Кбит/сек
Дата кодирования                 : UTC 2015-05-05 04:52:59
Дата пометки                     : UTC 2015-05-05 04:52:59
Программа кодирования            : Lavf54.63.104
Видео
Идентификатор                    : 1
Формат                           : AVC
Формат/Информация                : Advanced Video Codec
Профиль формата                  : [url=mailto:Main@L4.0]Main@L4.0[/url]
Параметр CABAC формата           : Да
Параметр ReFrames формата        : 1 кадр
Идентификатор кодека             : avc1
Идентификатор кодека/Информация  : Advanced Video Coding
Продолжительность                : 4 м. 45 с.
Вид битрейта                     : Переменный
Битрейт                          : 4496 Кбит/сек
Ширина                           : 1920 пикс.
Высота                           : 1080 пикс.
Соотношение сторон               : 16:9
Режим частоты кадров             : Постоянный
Частота кадров                   : 25,000 кадр/сек
Цветовое пространство            : YUV
Подвыборка цветности             : 4:2:0
Битовая глубина                  : 8 бит
Тип развёртки                    : Прогрессивная
Бит/(Пиксели*Кадры)              : 0.087
Размер потока                    : 154 Мбайт (97%)
Библиотека кодирования           : x264 core 129
Настройки программы              : cabac=1 / ref=1 / deblock=1:0:0 / analyse=0x1:0x131 / me=dia / subme=2 / psy=1 / psy_rd=1.00:0.00 / mixed_ref=0 / me_range=16 / chroma_me=1 / trellis=0 / 8x8dct=0 / cqm=0 / deadzone=21,11 / fast_pskip=1 / chroma_qp_offset=0 / threads=2 / lookahead_threads=1 / sliced_threads=0 / nr=0 / decimate=1 / interlaced=0 / bluray_compat=0 / constrained_intra=0 / bframes=0 / weightp=2 / keyint=250 / keyint_min=25 / scenecut=40 / intra_refresh=0 / rc_lookahead=40 / rc=abr / mbtree=1 / bitrate=4496 / ratetol=1.0 / qcomp=0.60 / qpmin=10 / qpmax=51 / qpstep=4 / ip_ratio=1.41 / aq=1:1.00
Дата кодирования                 : UTC 2015-05-05 04:52:59
Дата пометки                     : UTC 2015-05-05 04:52:59
Аудио
Идентификатор                    : 2
Формат                           : AAC
Формат/Информация                : Advanced Audio Codec
Профиль формата                  : LC
Идентификатор кодека             : 40
Продолжительность                : 4 м. 45 с.
Вид битрейта                     : Переменный
Битрейт                          : 151 Кбит/сек
Максимальный битрейт             : 176,4 Кбит/сек
Каналы                           : 2 канала
Расположение каналов             : Front: L R
Частота                          : 44,1 КГц
Метод сжатия                     : С потерями
Размер потока                    : 5,13 Мбайт (3%)
Дата кодирования                 : UTC 2015-05-05 04:52:59
Дата пометки                     : UTC 2015-05-05 04:52:59
Общее
Полное имя                       : E:\VA - Весенний марафон № 167 (Новый Dance Хит Парад)\EAD3N - Earned It (The Weeknd) (Official Video).mp4
Формат                           : MPEG-4
Профиль формата                  : Base Media
Идентификатор кодека             : isom
Размер файла                     : 138 Мбайт
Продолжительность                : 4 м. 9 с.
Общий поток                      : 4660 Кбит/сек
Дата кодирования                 : UTC 2015-05-03 20:34:46
Дата пометки                     : UTC 2015-05-03 20:34:46
Программа кодирования            : Lavf54.63.104
Видео
Идентификатор                    : 1
Формат                           : AVC
Формат/Информация                : Advanced Video Codec
Профиль формата                  : [url=mailto:Main@L4.0]Main@L4.0[/url]
Параметр CABAC формата           : Да
Параметр ReFrames формата        : 1 кадр
Идентификатор кодека             : avc1
Идентификатор кодека/Информация  : Advanced Video Coding
Продолжительность                : 4 м. 9 с.
Вид битрейта                     : Переменный
Битрейт                          : 4496 Кбит/сек
Ширина                           : 1920 пикс.
Высота                           : 1080 пикс.
Соотношение сторон               : 16:9
Режим частоты кадров             : Постоянный
Частота кадров                   : 25,000 кадр/сек
Цветовое пространство            : YUV
Подвыборка цветности             : 4:2:0
Битовая глубина                  : 8 бит
Тип развёртки                    : Прогрессивная
Бит/(Пиксели*Кадры)              : 0.087
Размер потока                    : 134 Мбайт (97%)
Библиотека кодирования           : x264 core 129
Настройки программы              : cabac=1 / ref=1 / deblock=1:0:0 / analyse=0x1:0x131 / me=dia / subme=2 / psy=1 / psy_rd=1.00:0.00 / mixed_ref=0 / me_range=16 / chroma_me=1 / trellis=0 / 8x8dct=0 / cqm=0 / deadzone=21,11 / fast_pskip=1 / chroma_qp_offset=0 / threads=2 / lookahead_threads=1 / sliced_threads=0 / nr=0 / decimate=1 / interlaced=0 / bluray_compat=0 / constrained_intra=0 / bframes=0 / weightp=2 / keyint=250 / keyint_min=25 / scenecut=40 / intra_refresh=0 / rc_lookahead=40 / rc=abr / mbtree=1 / bitrate=4496 / ratetol=1.0 / qcomp=0.60 / qpmin=10 / qpmax=51 / qpstep=4 / ip_ratio=1.41 / aq=1:1.00
Дата кодирования                 : UTC 2015-05-03 20:34:46
Дата пометки                     : UTC 2015-05-03 20:34:46
Аудио
Идентификатор                    : 2
Формат                           : AAC
Формат/Информация                : Advanced Audio Codec
Профиль формата                  : LC
Идентификатор кодека             : 40
Продолжительность                : 4 м. 9 с.
Вид битрейта                     : Переменный
Битрейт                          : 152 Кбит/сек
Максимальный битрейт             : 176,4 Кбит/сек
Каналы                           : 2 канала
Расположение каналов             : Front: L R
Частота                          : 44,1 КГц
Метод сжатия                     : С потерями
Размер потока                    : 4,51 Мбайт (3%)
Дата кодирования                 : UTC 2015-05-03 20:34:46
Дата пометки                     : UTC 2015-05-03 20:34:46
Общее
Полное имя                       : E:\VA - Весенний марафон № 167 (Новый Dance Хит Парад)\Emily Normann - Dis Moi Tout (Official Video).mp4
Формат                           : MPEG-4
Профиль формата                  : Base Media
Идентификатор кодека             : isom
Размер файла                     : 134 Мбайт
Продолжительность                : 4 м. 3 с.
Общий поток                      : 4626 Кбит/сек
Дата кодирования                 : UTC 2014-12-24 06:43:46
Дата пометки                     : UTC 2014-12-24 06:43:46
Программа кодирования            : Lavf54.63.104
Видео
Идентификатор                    : 1
Формат                           : AVC
Формат/Информация                : Advanced Video Codec
Профиль формата                  : [url=mailto:Main@L4.0]Main@L4.0[/url]
Параметр CABAC формата           : Да
Параметр ReFrames формата        : 1 кадр
Идентификатор кодека             : avc1
Идентификатор кодека/Информация  : Advanced Video Coding
Продолжительность                : 4 м. 3 с.
Вид битрейта                     : Переменный
Битрейт                          : 4496 Кбит/сек
Ширина                           : 1920 пикс.
Высота                           : 1080 пикс.
Соотношение сторон               : 16:9
Режим частоты кадров             : Постоянный
Частота кадров                   : 25,000 кадр/сек
Цветовое пространство            : YUV
Подвыборка цветности             : 4:2:0
Битовая глубина                  : 8 бит
Тип развёртки                    : Прогрессивная
Бит/(Пиксели*Кадры)              : 0.087
Размер потока                    : 130 Мбайт (97%)
Библиотека кодирования           : x264 core 129
Настройки программы              : cabac=1 / ref=1 / deblock=1:0:0 / analyse=0x1:0x131 / me=dia / subme=2 / psy=1 / psy_rd=1.00:0.00 / mixed_ref=0 / me_range=16 / chroma_me=1 / trellis=0 / 8x8dct=0 / cqm=0 / deadzone=21,11 / fast_pskip=1 / chroma_qp_offset=0 / threads=2 / lookahead_threads=1 / sliced_threads=0 / nr=0 / decimate=1 / interlaced=0 / bluray_compat=0 / constrained_intra=0 / bframes=0 / weightp=2 / keyint=250 / keyint_min=25 / scenecut=40 / intra_refresh=0 / rc_lookahead=40 / rc=abr / mbtree=1 / bitrate=4496 / ratetol=1.0 / qcomp=0.60 / qpmin=10 / qpmax=51 / qpstep=4 / ip_ratio=1.41 / aq=1:1.00
Дата кодирования                 : UTC 2014-12-24 06:43:46
Дата пометки                     : UTC 2014-12-24 06:43:46
Аудио
Идентификатор                    : 2
Формат                           : AAC
Формат/Информация                : Advanced Audio Codec
Профиль формата                  : LC
Идентификатор кодека             : 40
Продолжительность                : 4 м. 3 с.
Вид битрейта                     : Переменный
Битрейт                          : 152 Кбит/сек
Максимальный битрейт             : 176,4 Кбит/сек
Каналы                           : 2 канала
Расположение каналов             : Front: L R
Частота                          : 44,1 КГц
Метод сжатия                     : С потерями
Размер потока                    : 4,41 Мбайт (3%)
Дата кодирования                 : UTC 2014-12-24 06:43:46
Дата пометки                     : UTC 2014-12-24 06:43:46
Общее
Полное имя                       : E:\VA - Весенний марафон № 167 (Новый Dance Хит Парад)\Hopium - Right Now (Official Video).mp4
Формат                           : MPEG-4
Профиль формата                  : Base Media
Идентификатор кодека             : isom
Размер файла                     : 125 Мбайт
Продолжительность                : 3 м. 39 с.
Общий поток                      : 4790 Кбит/сек
Дата кодирования                 : UTC 2015-05-05 17:17:04
Дата пометки                     : UTC 2015-05-05 17:17:04
Программа кодирования            : Lavf54.63.104
Видео
Идентификатор                    : 1
Формат                           : AVC
Формат/Информация                : Advanced Video Codec
Профиль формата                  : [url=mailto:Main@L4.0]Main@L4.0[/url]
Параметр CABAC формата           : Да
Параметр ReFrames формата        : 1 кадр
Идентификатор кодека             : avc1
Идентификатор кодека/Информация  : Advanced Video Coding
Продолжительность                : 3 м. 39 с.
Вид битрейта                     : Переменный
Битрейт                          : 4496 Кбит/сек
Ширина                           : 1920 пикс.
Высота                           : 1080 пикс.
Соотношение сторон               : 16:9
Режим частоты кадров             : Постоянный
Частота кадров                   : 25,000 кадр/сек
Цветовое пространство            : YUV
Подвыборка цветности             : 4:2:0
Битовая глубина                  : 8 бит
Тип развёртки                    : Прогрессивная
Бит/(Пиксели*Кадры)              : 0.087
Размер потока                    : 121 Мбайт (97%)
Библиотека кодирования           : x264 core 129
Настройки программы              : cabac=1 / ref=1 / deblock=1:0:0 / analyse=0x1:0x131 / me=dia / subme=2 / psy=1 / psy_rd=1.00:0.00 / mixed_ref=0 / me_range=16 / chroma_me=1 / trellis=0 / 8x8dct=0 / cqm=0 / deadzone=21,11 / fast_pskip=1 / chroma_qp_offset=0 / threads=2 / lookahead_threads=1 / sliced_threads=0 / nr=0 / decimate=1 / interlaced=0 / bluray_compat=0 / constrained_intra=0 / bframes=0 / weightp=2 / keyint=250 / keyint_min=25 / scenecut=40 / intra_refresh=0 / rc_lookahead=40 / rc=abr / mbtree=1 / bitrate=4496 / ratetol=1.0 / qcomp=0.60 / qpmin=10 / qpmax=51 / qpstep=4 / ip_ratio=1.41 / aq=1:1.00
Дата кодирования                 : UTC 2015-05-05 17:17:04
Дата пометки                     : UTC 2015-05-05 17:17:04
Аудио
Идентификатор                    : 2
Формат                           : AAC
Формат/Информация                : Advanced Audio Codec
Профиль формата                  : LC
Идентификатор кодека             : 40
Продолжительность                : 3 м. 39 с.
Вид битрейта                     : Переменный
Битрейт                          : 151 Кбит/сек
Максимальный битрейт             : 176,4 Кбит/сек
Каналы                           : 2 канала
Расположение каналов             : Front: L R
Частота                          : 44,1 КГц
Метод сжатия                     : С потерями
Размер потока                    : 3,94 Мбайт (3%)
Дата кодирования                 : UTC 2015-05-05 17:17:04
Дата пометки                     : UTC 2015-05-05 17:17:04
Общее
Полное имя                       : E:\VA - Весенний марафон № 167 (Новый Dance Хит Парад)\Jazzy Jo - Maea (Official Video).mp4
Формат                           : MPEG-4
Профиль формата                  : Base Media
Идентификатор кодека             : isom
Размер файла                     : 113 Мбайт
Продолжительность                : 3 м. 40 с.
Общий поток                      : 4302 Кбит/сек
Программа кодирования            : Lavf55.33.100
Видео
Идентификатор                    : 1
Формат                           : AVC
Формат/Информация                : Advanced Video Codec
Профиль формата                  : [url=mailto:High@L4.0]High@L4.0[/url]
Параметр CABAC формата           : Да
Параметр ReFrames формата        : 2 кадра
Параметры GOP формата            : M=3, N=16
Идентификатор кодека             : avc1
Идентификатор кодека/Информация  : Advanced Video Coding
Продолжительность                : 3 м. 40 с.
Вид битрейта                     : Переменный
Битрейт                          : 4042 Кбит/сек
Ширина                           : 1920 пикс.
Высота                           : 1080 пикс.
Соотношение сторон               : 16:9
Режим частоты кадров             : Переменный
Частота кадров                   : 23,976 кадр/сек
Минимальная частота кадров       : 23,974 кадр/сек
Максимальная частота кадров      : 90000,000 кадр/сек
Цветовое пространство            : YUV
Подвыборка цветности             : 4:2:0
Битовая глубина                  : 8 бит
Тип развёртки                    : Прогрессивная
Бит/(Пиксели*Кадры)              : 0.081
Размер потока                    : 106 Мбайт (94%)
Аудио
Идентификатор                    : 2
Формат                           : AAC
Формат/Информация                : Advanced Audio Codec
Профиль формата                  : LC
Идентификатор кодека             : 40
Продолжительность                : 3 м. 40 с.
Вид битрейта                     : Постоянный
Битрейт                          : 254 Кбит/сек
Каналы                           : 2 канала
Расположение каналов             : Front: L R
Частота                          : 44,1 КГц
Метод сжатия                     : С потерями
Размер потока                    : 6,68 Мбайт (6%)
Общее
Полное имя                       : E:\VA - Весенний марафон № 167 (Новый Dance Хит Парад)\Lana Del Rey - West Coast (ZHU Remix) (Official Video).mp4
Формат                           : MPEG-4
Профиль формата                  : Base Media
Идентификатор кодека             : isom
Размер файла                     : 142 Мбайт
Продолжительность                : 4 м. 20 с.
Общий поток                      : 4566 Кбит/сек
Дата кодирования                 : UTC 2015-03-02 07:02:44
Дата пометки                     : UTC 2015-03-02 07:02:44
Программа кодирования            : Lavf54.63.104
Видео
Идентификатор                    : 1
Формат                           : AVC
Формат/Информация                : Advanced Video Codec
Профиль формата                  : [url=mailto:Main@L4.0]Main@L4.0[/url]
Параметр CABAC формата           : Да
Параметр ReFrames формата        : 1 кадр
Идентификатор кодека             : avc1
Идентификатор кодека/Информация  : Advanced Video Coding
Продолжительность                : 4 м. 20 с.
Вид битрейта                     : Переменный
Битрейт                          : 4496 Кбит/сек
Ширина                           : 1920 пикс.
Высота                           : 1080 пикс.
Соотношение сторон               : 16:9
Режим частоты кадров             : Постоянный
Частота кадров                   : 25,000 кадр/сек
Цветовое пространство            : YUV
Подвыборка цветности             : 4:2:0
Битовая глубина                  : 8 бит
Тип развёртки                    : Прогрессивная
Бит/(Пиксели*Кадры)              : 0.087
Размер потока                    : 137 Мбайт (97%)
Библиотека кодирования           : x264 core 129
Настройки программы              : cabac=1 / ref=1 / deblock=1:0:0 / analyse=0x1:0x131 / me=dia / subme=2 / psy=1 / psy_rd=1.00:0.00 / mixed_ref=0 / me_range=16 / chroma_me=1 / trellis=0 / 8x8dct=0 / cqm=0 / deadzone=21,11 / fast_pskip=1 / chroma_qp_offset=0 / threads=2 / lookahead_threads=1 / sliced_threads=0 / nr=0 / decimate=1 / interlaced=0 / bluray_compat=0 / constrained_intra=0 / bframes=0 / weightp=2 / keyint=250 / keyint_min=25 / scenecut=40 / intra_refresh=0 / rc_lookahead=40 / rc=abr / mbtree=1 / bitrate=4496 / ratetol=1.0 / qcomp=0.60 / qpmin=10 / qpmax=51 / qpstep=4 / ip_ratio=1.41 / aq=1:1.00
Дата кодирования                 : UTC 2015-03-02 07:02:44
Дата пометки                     : UTC 2015-03-02 07:02:44
Аудио
Идентификатор                    : 2
Формат                           : AAC
Формат/Информация                : Advanced Audio Codec
Профиль формата                  : LC
Идентификатор кодека             : 40
Продолжительность                : 4 м. 20 с.
Вид битрейта                     : Переменный
Битрейт                          : 152 Кбит/сек
Максимальный битрейт             : 176,4 Кбит/сек
Каналы                           : 2 канала
Расположение каналов             : Front: L R
Частота                          : 44,1 КГц
Метод сжатия                     : С потерями
Размер потока                    : 4,71 Мбайт (3%)
Дата кодирования                 : UTC 2015-03-02 07:02:44
Дата пометки                     : UTC 2015-03-02 07:02:44
Общее
Полное имя                       : E:\VA - Весенний марафон № 167 (Новый Dance Хит Парад)\Lena - Traffic Lights (Official Video).mp4
Формат                           : MPEG-4
Профиль формата                  : Base Media
Идентификатор кодека             : isom
Размер файла                     : 99,2 Мбайт
Продолжительность                : 2 м. 47 с.
Общий поток                      : 4961 Кбит/сек
Дата кодирования                 : UTC 2015-04-29 11:34:18
Дата пометки                     : UTC 2015-04-29 11:34:18
Программа кодирования            : Lavf54.63.104
Видео
Идентификатор                    : 1
Формат                           : AVC
Формат/Информация                : Advanced Video Codec
Профиль формата                  : [url=mailto:Main@L4.0]Main@L4.0[/url]
Параметр CABAC формата           : Да
Параметр ReFrames формата        : 1 кадр
Идентификатор кодека             : avc1
Идентификатор кодека/Информация  : Advanced Video Coding
Продолжительность                : 2 м. 47 с.
Вид битрейта                     : Переменный
Битрейт                          : 4805 Кбит/сек
Номинальный битрейт              : 4496 Кбит/сек
Ширина                           : 1920 пикс.
Высота                           : 1080 пикс.
Соотношение сторон               : 16:9
Режим частоты кадров             : Постоянный
Частота кадров                   : 25,000 кадр/сек
Цветовое пространство            : YUV
Подвыборка цветности             : 4:2:0
Битовая глубина                  : 8 бит
Тип развёртки                    : Прогрессивная
Бит/(Пиксели*Кадры)              : 0.093
Размер потока                    : 96,1 Мбайт (97%)
Библиотека кодирования           : x264 core 129
Настройки программы              : cabac=1 / ref=1 / deblock=1:0:0 / analyse=0x1:0x131 / me=dia / subme=2 / psy=1 / psy_rd=1.00:0.00 / mixed_ref=0 / me_range=16 / chroma_me=1 / trellis=0 / 8x8dct=0 / cqm=0 / deadzone=21,11 / fast_pskip=1 / chroma_qp_offset=0 / threads=2 / lookahead_threads=1 / sliced_threads=0 / nr=0 / decimate=1 / interlaced=0 / bluray_compat=0 / constrained_intra=0 / bframes=0 / weightp=2 / keyint=250 / keyint_min=25 / scenecut=40 / intra_refresh=0 / rc_lookahead=40 / rc=abr / mbtree=1 / bitrate=4496 / ratetol=1.0 / qcomp=0.60 / qpmin=10 / qpmax=51 / qpstep=4 / ip_ratio=1.41 / aq=1:1.00
Дата кодирования                 : UTC 2015-04-29 11:34:18
Дата пометки                     : UTC 2015-04-29 11:34:18
Аудио
Идентификатор                    : 2
Формат                           : AAC
Формат/Информация                : Advanced Audio Codec
Профиль формата                  : LC
Идентификатор кодека             : 40
Продолжительность                : 2 м. 47 с.
Вид битрейта                     : Переменный
Битрейт                          : 151 Кбит/сек
Максимальный битрейт             : 176,4 Кбит/сек
Каналы                           : 2 канала
Расположение каналов             : Front: L R
Частота                          : 44,1 КГц
Метод сжатия                     : С потерями
Размер потока                    : 3,02 Мбайт (3%)
Дата кодирования                 : UTC 2015-04-29 11:34:18
Дата пометки                     : UTC 2015-04-29 11:34:18
Общее
Полное имя                       : E:\VA - Весенний марафон № 167 (Новый Dance Хит Парад)\Michelle Williams - Believe In Me (Official Video).mp4
Формат                           : MPEG-4
Профиль формата                  : Base Media
Идентификатор кодека             : isom
Размер файла                     : 116 Мбайт
Продолжительность                : 3 м. 38 с.
Общий поток                      : 4465 Кбит/сек
Дата кодирования                 : UTC 2015-04-30 15:35:14
Дата пометки                     : UTC 2015-04-30 15:35:14
Программа кодирования            : Lavf54.63.104
Видео
Идентификатор                    : 1
Формат                           : AVC
Формат/Информация                : Advanced Video Codec
Профиль формата                  : [url=mailto:Main@L4.0]Main@L4.0[/url]
Параметр CABAC формата           : Да
Параметр ReFrames формата        : 1 кадр
Идентификатор кодека             : avc1
Идентификатор кодека/Информация  : Advanced Video Coding
Продолжительность                : 3 м. 38 с.
Вид битрейта                     : Переменный
Битрейт                          : 4496 Кбит/сек
Ширина                           : 1920 пикс.
Высота                           : 1080 пикс.
Соотношение сторон               : 16:9
Режим частоты кадров             : Постоянный
Частота кадров                   : 25,000 кадр/сек
Цветовое пространство            : YUV
Подвыборка цветности             : 4:2:0
Битовая глубина                  : 8 бит
Тип развёртки                    : Прогрессивная
Бит/(Пиксели*Кадры)              : 0.087
Размер потока                    : 112 Мбайт (97%)
Библиотека кодирования           : x264 core 129
Настройки программы              : cabac=1 / ref=1 / deblock=1:0:0 / analyse=0x1:0x131 / me=dia / subme=2 / psy=1 / psy_rd=1.00:0.00 / mixed_ref=0 / me_range=16 / chroma_me=1 / trellis=0 / 8x8dct=0 / cqm=0 / deadzone=21,11 / fast_pskip=1 / chroma_qp_offset=0 / threads=2 / lookahead_threads=1 / sliced_threads=0 / nr=0 / decimate=1 / interlaced=0 / bluray_compat=0 / constrained_intra=0 / bframes=0 / weightp=2 / keyint=250 / keyint_min=25 / scenecut=40 / intra_refresh=0 / rc_lookahead=40 / rc=abr / mbtree=1 / bitrate=4496 / ratetol=1.0 / qcomp=0.60 / qpmin=10 / qpmax=51 / qpstep=4 / ip_ratio=1.41 / aq=1:1.00
Дата кодирования                 : UTC 2015-04-30 15:35:14
Дата пометки                     : UTC 2015-04-30 15:35:14
Аудио
Идентификатор                    : 2
Формат                           : AAC
Формат/Информация                : Advanced Audio Codec
Профиль формата                  : LC
Идентификатор кодека             : 40
Продолжительность                : 3 м. 38 с.
Вид битрейта                     : Переменный
Битрейт                          : 148 Кбит/сек
Максимальный битрейт             : 176,4 Кбит/сек
Каналы                           : 2 канала
Расположение каналов             : Front: L R
Частота                          : 44,1 КГц
Метод сжатия                     : С потерями
Размер потока                    : 3,84 Мбайт (3%)
Дата кодирования                 : UTC 2015-04-30 15:35:14
Дата пометки                     : UTC 2015-04-30 15:35:14
Общее
Полное имя                       : E:\VA - Весенний марафон № 167 (Новый Dance Хит Парад)\Nicole Cherry - Pana vine vineri (Official Video).mp4
Формат                           : MPEG-4
Профиль формата                  : Base Media
Идентификатор кодека             : isom
Размер файла                     : 87,8 Мбайт
Продолжительность                : 3 м. 31 с.
Общий поток                      : 3476 Кбит/сек
Программа кодирования            : Lavf55.33.100
Видео
Идентификатор                    : 1
Формат                           : AVC
Формат/Информация                : Advanced Video Codec
Профиль формата                  : [url=mailto:High@L4.0]High@L4.0[/url]
Параметр CABAC формата           : Да
Параметр ReFrames формата        : 2 кадра
Параметры GOP формата            : M=1, N=47
Идентификатор кодека             : avc1
Идентификатор кодека/Информация  : Advanced Video Coding
Продолжительность                : 3 м. 31 с.
Вид битрейта                     : Переменный
Битрейт                          : 3218 Кбит/сек
Ширина                           : 1920 пикс.
Высота                           : 1080 пикс.
Соотношение сторон               : 16:9
Режим частоты кадров             : Переменный
Частота кадров                   : 25,000 кадр/сек
Минимальная частота кадров       : 25,000 кадр/сек
Максимальная частота кадров      : 90000,000 кадр/сек
Цветовое пространство            : YUV
Подвыборка цветности             : 4:2:0
Битовая глубина                  : 8 бит
Тип развёртки                    : Прогрессивная
Бит/(Пиксели*Кадры)              : 0.062
Размер потока                    : 81,2 Мбайт (93%)
Аудио
Идентификатор                    : 2
Формат                           : AAC
Формат/Информация                : Advanced Audio Codec
Профиль формата                  : LC
Идентификатор кодека             : 40
Продолжительность                : 3 м. 31 с.
Вид битрейта                     : Постоянный
Битрейт                          : 254 Кбит/сек
Каналы                           : 2 канала
Расположение каналов             : Front: L R
Частота                          : 44,1 КГц
Метод сжатия                     : С потерями
Размер потока                    : 6,40 Мбайт (7%)
Общее
Полное имя                       : E:\VA - Весенний марафон № 167 (Новый Dance Хит Парад)\Prince Royce ft. Pitbull - Back It Up (Official Lyric Video).mp4
Формат                           : MPEG-4
Профиль формата                  : Base Media
Идентификатор кодека             : isom
Размер файла                     : 111 Мбайт
Продолжительность                : 3 м. 22 с.
Общий поток                      : 4600 Кбит/сек
Дата кодирования                 : UTC 2015-05-01 18:08:05
Дата пометки                     : UTC 2015-05-01 18:08:05
Программа кодирования            : Lavf54.63.104
Видео
Идентификатор                    : 1
Формат                           : AVC
Формат/Информация                : Advanced Video Codec
Профиль формата                  : [url=mailto:Main@L4.0]Main@L4.0[/url]
Параметр CABAC формата           : Да
Параметр ReFrames формата        : 1 кадр
Идентификатор кодека             : avc1
Идентификатор кодека/Информация  : Advanced Video Coding
Продолжительность                : 3 м. 22 с.
Вид битрейта                     : Переменный
Битрейт                          : 4496 Кбит/сек
Ширина                           : 1920 пикс.
Высота                           : 1080 пикс.
Соотношение сторон               : 16:9
Режим частоты кадров             : Постоянный
Частота кадров                   : 25,000 кадр/сек
Цветовое пространство            : YUV
Подвыборка цветности             : 4:2:0
Битовая глубина                  : 8 бит
Тип развёртки                    : Прогрессивная
Бит/(Пиксели*Кадры)              : 0.087
Размер потока                    : 107 Мбайт (97%)
Библиотека кодирования           : x264 core 129
Настройки программы              : cabac=1 / ref=1 / deblock=1:0:0 / analyse=0x1:0x131 / me=dia / subme=2 / psy=1 / psy_rd=1.00:0.00 / mixed_ref=0 / me_range=16 / chroma_me=1 / trellis=0 / 8x8dct=0 / cqm=0 / deadzone=21,11 / fast_pskip=1 / chroma_qp_offset=0 / threads=2 / lookahead_threads=1 / sliced_threads=0 / nr=0 / decimate=1 / interlaced=0 / bluray_compat=0 / constrained_intra=0 / bframes=0 / weightp=2 / keyint=250 / keyint_min=25 / scenecut=40 / intra_refresh=0 / rc_lookahead=40 / rc=abr / mbtree=1 / bitrate=4496 / ratetol=1.0 / qcomp=0.60 / qpmin=10 / qpmax=51 / qpstep=4 / ip_ratio=1.41 / aq=1:1.00
Дата кодирования                 : UTC 2015-05-01 18:08:05
Дата пометки                     : UTC 2015-05-01 18:08:05
Аудио
Идентификатор                    : 2
Формат                           : AAC
Формат/Информация                : Advanced Audio Codec
Профиль формата                  : LC
Идентификатор кодека             : 40
Продолжительность                : 3 м. 22 с.
Вид битрейта                     : Переменный
Битрейт                          : 151 Кбит/сек
Максимальный битрейт             : 176,4 Кбит/сек
Каналы                           : 2 канала
Расположение каналов             : Front: L R
Частота                          : 44,1 КГц
Метод сжатия                     : С потерями
Размер потока                    : 3,65 Мбайт (3%)
Дата кодирования                 : UTC 2015-05-01 18:08:05
Дата пометки                     : UTC 2015-05-01 18:08:05
Общее
Полное имя                       : E:\VA - Весенний марафон № 167 (Новый Dance Хит Парад)\Radio Killer - Headphones (Official Video).mp4
Формат                           : MPEG-4
Профиль формата                  : Base Media
Идентификатор кодека             : isom
Размер файла                     : 117 Мбайт
Продолжительность                : 3 м. 43 с.
Общий поток                      : 4372 Кбит/сек
Дата кодирования                 : UTC 2015-05-05 05:47:04
Дата пометки                     : UTC 2015-05-05 05:47:04
Программа кодирования            : Lavf54.63.104
Видео
Идентификатор                    : 1
Формат                           : AVC
Формат/Информация                : Advanced Video Codec
Профиль формата                  : [url=mailto:Main@L4.0]Main@L4.0[/url]
Параметр CABAC формата           : Да
Параметр ReFrames формата        : 1 кадр
Идентификатор кодека             : avc1
Идентификатор кодека/Информация  : Advanced Video Coding
Продолжительность                : 3 м. 43 с.
Вид битрейта                     : Переменный
Битрейт                          : 4221 Кбит/сек
Номинальный битрейт              : 4496 Кбит/сек
Ширина                           : 1920 пикс.
Высота                           : 1080 пикс.
Соотношение сторон               : 16:9
Режим частоты кадров             : Постоянный
Частота кадров                   : 25,000 кадр/сек
Цветовое пространство            : YUV
Подвыборка цветности             : 4:2:0
Битовая глубина                  : 8 бит
Тип развёртки                    : Прогрессивная
Бит/(Пиксели*Кадры)              : 0.081
Размер потока                    : 113 Мбайт (97%)
Библиотека кодирования           : x264 core 129
Настройки программы              : cabac=1 / ref=1 / deblock=1:0:0 / analyse=0x1:0x131 / me=dia / subme=2 / psy=1 / psy_rd=1.00:0.00 / mixed_ref=0 / me_range=16 / chroma_me=1 / trellis=0 / 8x8dct=0 / cqm=0 / deadzone=21,11 / fast_pskip=1 / chroma_qp_offset=0 / threads=2 / lookahead_threads=1 / sliced_threads=0 / nr=0 / decimate=1 / interlaced=0 / bluray_compat=0 / constrained_intra=0 / bframes=0 / weightp=2 / keyint=250 / keyint_min=25 / scenecut=40 / intra_refresh=0 / rc_lookahead=40 / rc=abr / mbtree=1 / bitrate=4496 / ratetol=1.0 / qcomp=0.60 / qpmin=10 / qpmax=51 / qpstep=4 / ip_ratio=1.41 / aq=1:1.00
Дата кодирования                 : UTC 2015-05-05 05:47:04
Дата пометки                     : UTC 2015-05-05 05:47:04
Аудио
Идентификатор                    : 2
Формат                           : AAC
Формат/Информация                : Advanced Audio Codec
Профиль формата                  : LC
Идентификатор кодека             : 40
Продолжительность                : 3 м. 43 с.
Вид битрейта                     : Переменный
Битрейт                          : 144 Кбит/сек
Максимальный битрейт             : 176,4 Кбит/сек
Каналы                           : 2 канала
Расположение каналов             : Front: L R
Частота                          : 44,1 КГц
Метод сжатия                     : С потерями
Размер потока                    : 3,88 Мбайт (3%)
Дата кодирования                 : UTC 2015-05-05 05:47:04
Дата пометки                     : UTC 2015-05-05 05:47:04
Общее
Полное имя                       : E:\VA - Весенний марафон № 167 (Новый Dance Хит Парад)\Sammi Sachez - Talk (Official Video).mp4
Формат                           : MPEG-4
Профиль формата                  : Base Media
Идентификатор кодека             : isom
Размер файла                     : 112 Мбайт
Продолжительность                : 3 м. 23 с.
Общий поток                      : 4626 Кбит/сек
Дата кодирования                 : UTC 2015-05-04 21:15:38
Дата пометки                     : UTC 2015-05-04 21:15:38
Программа кодирования            : Lavf54.63.104
Видео
Идентификатор                    : 1
Формат                           : AVC
Формат/Информация                : Advanced Video Codec
Профиль формата                  : [url=mailto:Main@L4.0]Main@L4.0[/url]
Параметр CABAC формата           : Да
Параметр ReFrames формата        : 1 кадр
Идентификатор кодека             : avc1
Идентификатор кодека/Информация  : Advanced Video Coding
Продолжительность                : 3 м. 23 с.
Вид битрейта                     : Переменный
Битрейт                          : 4496 Кбит/сек
Ширина                           : 1920 пикс.
Высота                           : 1080 пикс.
Соотношение сторон               : 16:9
Режим частоты кадров             : Постоянный
Частота кадров                   : 25,000 кадр/сек
Цветовое пространство            : YUV
Подвыборка цветности             : 4:2:0
Битовая глубина                  : 8 бит
Тип развёртки                    : Прогрессивная
Бит/(Пиксели*Кадры)              : 0.087
Размер потока                    : 108 Мбайт (97%)
Библиотека кодирования           : x264 core 129
Настройки программы              : cabac=1 / ref=1 / deblock=1:0:0 / analyse=0x1:0x131 / me=dia / subme=2 / psy=1 / psy_rd=1.00:0.00 / mixed_ref=0 / me_range=16 / chroma_me=1 / trellis=0 / 8x8dct=0 / cqm=0 / deadzone=21,11 / fast_pskip=1 / chroma_qp_offset=0 / threads=2 / lookahead_threads=1 / sliced_threads=0 / nr=0 / decimate=1 / interlaced=0 / bluray_compat=0 / constrained_intra=0 / bframes=0 / weightp=2 / keyint=250 / keyint_min=25 / scenecut=40 / intra_refresh=0 / rc_lookahead=40 / rc=abr / mbtree=1 / bitrate=4496 / ratetol=1.0 / qcomp=0.60 / qpmin=10 / qpmax=51 / qpstep=4 / ip_ratio=1.41 / aq=1:1.00
Дата кодирования                 : UTC 2015-05-04 21:15:38
Дата пометки                     : UTC 2015-05-04 21:15:38
Аудио
Идентификатор                    : 2
Формат                           : AAC
Формат/Информация                : Advanced Audio Codec
Профиль формата                  : LC
Идентификатор кодека             : 40
Продолжительность                : 3 м. 23 с.
Вид битрейта                     : Переменный
Битрейт                          : 152 Кбит/сек
Максимальный битрейт             : 176,4 Кбит/сек
Каналы                           : 2 канала
Расположение каналов             : Front: L R
Частота                          : 44,1 КГц
Метод сжатия                     : С потерями
Размер потока                    : 3,67 Мбайт (3%)
Дата кодирования                 : UTC 2015-05-04 21:15:38
Дата пометки                     : UTC 2015-05-04 21:15:38
Общее
Полное имя                       : E:\VA - Весенний марафон № 167 (Новый Dance Хит Парад)\Sevyn Streeter - 4th Street (Official Video).mp4
Формат                           : MPEG-4
Профиль формата                  : Base Media
Идентификатор кодека             : isom
Размер файла                     : 124 Мбайт
Продолжительность                : 4 м. 55 с.
Общий поток                      : 3516 Кбит/сек
Программа кодирования            : Lavf55.33.100
Видео
Идентификатор                    : 1
Формат                           : AVC
Формат/Информация                : Advanced Video Codec
Профиль формата                  : [url=mailto:High@L4.0]High@L4.0[/url]
Параметр CABAC формата           : Да
Параметр ReFrames формата        : 2 кадра
Идентификатор кодека             : avc1
Идентификатор кодека/Информация  : Advanced Video Coding
Продолжительность                : 4 м. 55 с.
Вид битрейта                     : Переменный
Битрейт                          : 3256 Кбит/сек
Ширина                           : 1920 пикс.
Высота                           : 1080 пикс.
Соотношение сторон               : 16:9
Режим частоты кадров             : Переменный
Частота кадров                   : 23,976 кадр/сек
Минимальная частота кадров       : 23,974 кадр/сек
Максимальная частота кадров      : 90000,000 кадр/сек
Цветовое пространство            : YUV
Подвыборка цветности             : 4:2:0
Битовая глубина                  : 8 бит
Тип развёртки                    : Прогрессивная
Бит/(Пиксели*Кадры)              : 0.065
Размер потока                    : 115 Мбайт (93%)
Аудио
Идентификатор                    : 2
Формат                           : AAC
Формат/Информация                : Advanced Audio Codec
Профиль формата                  : LC
Идентификатор кодека             : 40
Продолжительность                : 4 м. 55 с.
Вид битрейта                     : Постоянный
Битрейт                          : 254 Кбит/сек
Каналы                           : 2 канала
Расположение каналов             : Front: L R
Частота                          : 44,1 КГц
Метод сжатия                     : С потерями
Размер потока                    : 8,93 Мбайт (7%)
Общее
Полное имя                       : E:\VA - Весенний марафон № 167 (Новый Dance Хит Парад)\Sharon Doorson - Electrify (Official Video).mp4
Формат                           : MPEG-4
Профиль формата                  : Base Media
Идентификатор кодека             : isom
Размер файла                     : 103 Мбайт
Продолжительность                : 3 м. 20 с.
Общий поток                      : 4335 Кбит/сек
Дата кодирования                 : UTC 2015-04-30 15:40:49
Дата пометки                     : UTC 2015-04-30 15:40:49
Программа кодирования            : Lavf54.63.104
Видео
Идентификатор                    : 1
Формат                           : AVC
Формат/Информация                : Advanced Video Codec
Профиль формата                  : [url=mailto:Main@L4.0]Main@L4.0[/url]
Параметр CABAC формата           : Да
Параметр ReFrames формата        : 1 кадр
Идентификатор кодека             : avc1
Идентификатор кодека/Информация  : Advanced Video Coding
Продолжительность                : 3 м. 20 с.
Вид битрейта                     : Переменный
Битрейт                          : 4222 Кбит/сек
Номинальный битрейт              : 4496 Кбит/сек
Ширина                           : 1920 пикс.
Высота                           : 1080 пикс.
Соотношение сторон               : 16:9
Режим частоты кадров             : Постоянный
Частота кадров                   : 25,000 кадр/сек
Цветовое пространство            : YUV
Подвыборка цветности             : 4:2:0
Битовая глубина                  : 8 бит
Тип развёртки                    : Прогрессивная
Бит/(Пиксели*Кадры)              : 0.081
Размер потока                    : 101 Мбайт (97%)
Библиотека кодирования           : x264 core 129
Настройки программы              : cabac=1 / ref=1 / deblock=1:0:0 / analyse=0x1:0x131 / me=dia / subme=2 / psy=1 / psy_rd=1.00:0.00 / mixed_ref=0 / me_range=16 / chroma_me=1 / trellis=0 / 8x8dct=0 / cqm=0 / deadzone=21,11 / fast_pskip=1 / chroma_qp_offset=0 / threads=2 / lookahead_threads=1 / sliced_threads=0 / nr=0 / decimate=1 / interlaced=0 / bluray_compat=0 / constrained_intra=0 / bframes=0 / weightp=2 / keyint=250 / keyint_min=25 / scenecut=40 / intra_refresh=0 / rc_lookahead=40 / rc=abr / mbtree=1 / bitrate=4496 / ratetol=1.0 / qcomp=0.60 / qpmin=10 / qpmax=51 / qpstep=4 / ip_ratio=1.41 / aq=1:1.00
Дата кодирования                 : UTC 2015-04-30 15:40:49
Дата пометки                     : UTC 2015-04-30 15:40:49
Аудио
Идентификатор                    : 2
Формат                           : AAC
Формат/Информация                : Advanced Audio Codec
Профиль формата                  : LC
Идентификатор кодека             : 40
Продолжительность                : 3 м. 20 с.
Вид битрейта                     : Переменный
Битрейт                          : 108 Кбит/сек
Максимальный битрейт             : 176,4 Кбит/сек
Каналы                           : 2 канала
Расположение каналов             : Front: L R
Частота                          : 44,1 КГц
Метод сжатия                     : С потерями
Размер потока                    : 2,56 Мбайт (2%)
Дата кодирования                 : UTC 2015-04-30 15:40:49
Дата пометки                     : UTC 2015-04-30 15:40:49
Общее
Полное имя                       : E:\VA - Весенний марафон № 167 (Новый Dance Хит Парад)\Sweet California - Hey Mickey (Official Video).mp4
Формат                           : MPEG-4
Профиль формата                  : Base Media
Идентификатор кодека             : isom
Размер файла                     : 113 Мбайт
Продолжительность                : 3 м. 16 с.
Общий поток                      : 4832 Кбит/сек
Дата кодирования                 : UTC 2015-04-29 18:06:47
Дата пометки                     : UTC 2015-04-29 18:06:47
Программа кодирования            : Lavf54.63.104
Видео
Идентификатор                    : 1
Формат                           : AVC
Формат/Информация                : Advanced Video Codec
Профиль формата                  : [url=mailto:Main@L4.0]Main@L4.0[/url]
Параметр CABAC формата           : Да
Параметр ReFrames формата        : 1 кадр
Идентификатор кодека             : avc1
Идентификатор кодека/Информация  : Advanced Video Coding
Продолжительность                : 3 м. 16 с.
Вид битрейта                     : Переменный
Битрейт                          : 4496 Кбит/сек
Ширина                           : 1920 пикс.
Высота                           : 1080 пикс.
Соотношение сторон               : 16:9
Режим частоты кадров             : Постоянный
Частота кадров                   : 25,000 кадр/сек
Цветовое пространство            : YUV
Подвыборка цветности             : 4:2:0
Битовая глубина                  : 8 бит
Тип развёртки                    : Прогрессивная
Бит/(Пиксели*Кадры)              : 0.087
Размер потока                    : 109 Мбайт (97%)
Библиотека кодирования           : x264 core 129
Настройки программы              : cabac=1 / ref=1 / deblock=1:0:0 / analyse=0x1:0x131 / me=dia / subme=2 / psy=1 / psy_rd=1.00:0.00 / mixed_ref=0 / me_range=16 / chroma_me=1 / trellis=0 / 8x8dct=0 / cqm=0 / deadzone=21,11 / fast_pskip=1 / chroma_qp_offset=0 / threads=2 / lookahead_threads=1 / sliced_threads=0 / nr=0 / decimate=1 / interlaced=0 / bluray_compat=0 / constrained_intra=0 / bframes=0 / weightp=2 / keyint=250 / keyint_min=25 / scenecut=40 / intra_refresh=0 / rc_lookahead=40 / rc=abr / mbtree=1 / bitrate=4496 / ratetol=1.0 / qcomp=0.60 / qpmin=10 / qpmax=51 / qpstep=4 / ip_ratio=1.41 / aq=1:1.00
Дата кодирования                 : UTC 2015-04-29 18:06:47
Дата пометки                     : UTC 2015-04-29 18:06:47
Аудио
Идентификатор                    : 2
Формат                           : AAC
Формат/Информация                : Advanced Audio Codec
Профиль формата                  : LC
Идентификатор кодека             : 40
Продолжительность                : 3 м. 16 с.
Вид битрейта                     : Переменный
Битрейт                          : 152 Кбит/сек
Максимальный битрейт             : 176,4 Кбит/сек
Каналы                           : 2 канала
Расположение каналов             : Front: L R
Частота                          : 44,1 КГц
Метод сжатия                     : С потерями
Размер потока                    : 3,56 Мбайт (3%)
Дата кодирования                 : UTC 2015-04-29 18:06:47
Дата пометки                     : UTC 2015-04-29 18:06:47
Общее
Полное имя                       : E:\VA - Весенний марафон № 167 (Новый Dance Хит Парад)\Tantrum Desire ft. Solah - Oblivion (Official Video).mp4
Формат                           : MPEG-4
Профиль формата                  : Base Media
Идентификатор кодека             : isom
Размер файла                     : 131 Мбайт
Продолжительность                : 4 м. 2 с.
Общий поток                      : 4521 Кбит/сек
Дата кодирования                 : UTC 2015-05-01 16:22:49
Дата пометки                     : UTC 2015-05-01 16:22:49
Программа кодирования            : Lavf54.63.104
Видео
Идентификатор                    : 1
Формат                           : AVC
Формат/Информация                : Advanced Video Codec
Профиль формата                  : [url=mailto:Main@L4.0]Main@L4.0[/url]
Параметр CABAC формата           : Да
Параметр ReFrames формата        : 1 кадр
Идентификатор кодека             : avc1
Идентификатор кодека/Информация  : Advanced Video Coding
Продолжительность                : 4 м. 2 с.
Вид битрейта                     : Переменный
Битрейт                          : 4496 Кбит/сек
Ширина                           : 1920 пикс.
Высота                           : 1080 пикс.
Соотношение сторон               : 16:9
Режим частоты кадров             : Постоянный
Частота кадров                   : 25,000 кадр/сек
Цветовое пространство            : YUV
Подвыборка цветности             : 4:2:0
Битовая глубина                  : 8 бит
Тип развёртки                    : Прогрессивная
Бит/(Пиксели*Кадры)              : 0.087
Размер потока                    : 126 Мбайт (97%)
Библиотека кодирования           : x264 core 129
Настройки программы              : cabac=1 / ref=1 / deblock=1:0:0 / analyse=0x1:0x131 / me=dia / subme=2 / psy=1 / psy_rd=1.00:0.00 / mixed_ref=0 / me_range=16 / chroma_me=1 / trellis=0 / 8x8dct=0 / cqm=0 / deadzone=21,11 / fast_pskip=1 / chroma_qp_offset=0 / threads=2 / lookahead_threads=1 / sliced_threads=0 / nr=0 / decimate=1 / interlaced=0 / bluray_compat=0 / constrained_intra=0 / bframes=0 / weightp=2 / keyint=250 / keyint_min=25 / scenecut=40 / intra_refresh=0 / rc_lookahead=40 / rc=abr / mbtree=1 / bitrate=4496 / ratetol=1.0 / qcomp=0.60 / qpmin=10 / qpmax=51 / qpstep=4 / ip_ratio=1.41 / aq=1:1.00
Дата кодирования                 : UTC 2015-05-01 16:22:49
Дата пометки                     : UTC 2015-05-01 16:22:49
Аудио
Идентификатор                    : 2
Формат                           : AAC
Формат/Информация                : Advanced Audio Codec
Профиль формата                  : LC
Идентификатор кодека             : 40
Продолжительность                : 4 м. 2 с.
Вид битрейта                     : Переменный
Битрейт                          : 149 Кбит/сек
Максимальный битрейт             : 176,4 Кбит/сек
Каналы                           : 2 канала
Расположение каналов             : Front: L R
Частота                          : 44,1 КГц
Метод сжатия                     : С потерями
Размер потока                    : 4,31 Мбайт (3%)
Дата кодирования                 : UTC 2015-05-01 16:22:49
Дата пометки                     : UTC 2015-05-01 16:22:49
Общее
Полное имя                       : E:\VA - Весенний марафон № 167 (Новый Dance Хит Парад)\The Hardkiss - Organ (Official Video).mp4
Формат                           : MPEG-4
Профиль формата                  : Base Media
Идентификатор кодека             : isom
Размер файла                     : 111 Мбайт
Продолжительность                : 3 м. 19 с.
Общий поток                      : 4682 Кбит/сек
Дата кодирования                 : UTC 2015-04-22 05:26:12
Дата пометки                     : UTC 2015-04-22 05:26:12
Программа кодирования            : Lavf54.63.104
Видео
Идентификатор                    : 1
Формат                           : AVC
Формат/Информация                : Advanced Video Codec
Профиль формата                  : [url=mailto:Main@L4.0]Main@L4.0[/url]
Параметр CABAC формата           : Да
Параметр ReFrames формата        : 1 кадр
Идентификатор кодека             : avc1
Идентификатор кодека/Информация  : Advanced Video Coding
Продолжительность                : 3 м. 19 с.
Вид битрейта                     : Переменный
Битрейт                          : 4496 Кбит/сек
Ширина                           : 1920 пикс.
Высота                           : 1080 пикс.
Соотношение сторон               : 16:9
Режим частоты кадров             : Постоянный
Частота кадров                   : 25,000 кадр/сек
Цветовое пространство            : YUV
Подвыборка цветности             : 4:2:0
Битовая глубина                  : 8 бит
Тип развёртки                    : Прогрессивная
Бит/(Пиксели*Кадры)              : 0.087
Размер потока                    : 107 Мбайт (97%)
Библиотека кодирования           : x264 core 129
Настройки программы              : cabac=1 / ref=1 / deblock=1:0:0 / analyse=0x1:0x131 / me=dia / subme=2 / psy=1 / psy_rd=1.00:0.00 / mixed_ref=0 / me_range=16 / chroma_me=1 / trellis=0 / 8x8dct=0 / cqm=0 / deadzone=21,11 / fast_pskip=1 / chroma_qp_offset=0 / threads=2 / lookahead_threads=1 / sliced_threads=0 / nr=0 / decimate=1 / interlaced=0 / bluray_compat=0 / constrained_intra=0 / bframes=0 / weightp=2 / keyint=250 / keyint_min=25 / scenecut=40 / intra_refresh=0 / rc_lookahead=40 / rc=abr / mbtree=1 / bitrate=4496 / ratetol=1.0 / qcomp=0.60 / qpmin=10 / qpmax=51 / qpstep=4 / ip_ratio=1.41 / aq=1:1.00
Дата кодирования                 : UTC 2015-04-22 05:26:12
Дата пометки                     : UTC 2015-04-22 05:26:12
Аудио
Идентификатор                    : 2
Формат                           : AAC
Формат/Информация                : Advanced Audio Codec
Профиль формата                  : LC
Идентификатор кодека             : 40
Продолжительность                : 3 м. 18 с.
Вид битрейта                     : Переменный
Битрейт                          : 152 Кбит/сек
Максимальный битрейт             : 176,4 Кбит/сек
Каналы                           : 2 канала
Расположение каналов             : Front: L R
Частота                          : 44,1 КГц
Метод сжатия                     : С потерями
Размер потока                    : 3,60 Мбайт (3%)
Дата кодирования                 : UTC 2015-04-22 05:26:12
Дата пометки                     : UTC 2015-04-22 05:26:12
Общее
Полное имя                       : E:\VA - Весенний марафон № 167 (Новый Dance Хит Парад)\Twiins - Sagapo (Official Video).mp4
Формат                           : MPEG-4
Профиль формата                  : Base Media
Идентификатор кодека             : isom
Размер файла                     : 112 Мбайт
Продолжительность                : 3 м. 31 с.
Общий поток                      : 4435 Кбит/сек
Дата кодирования                 : UTC 2015-04-27 20:41:27
Дата пометки                     : UTC 2015-04-27 20:41:27
Программа кодирования            : Lavf54.63.104
Видео
Идентификатор                    : 1
Формат                           : AVC
Формат/Информация                : Advanced Video Codec
Профиль формата                  : [url=mailto:Main@L4.0]Main@L4.0[/url]
Параметр CABAC формата           : Да
Параметр ReFrames формата        : 1 кадр
Идентификатор кодека             : avc1
Идентификатор кодека/Информация  : Advanced Video Coding
Продолжительность                : 3 м. 31 с.
Вид битрейта                     : Переменный
Битрейт                          : 4496 Кбит/сек
Ширина                           : 1920 пикс.
Высота                           : 1080 пикс.
Соотношение сторон               : 16:9
Режим частоты кадров             : Постоянный
Частота кадров                   : 25,000 кадр/сек
Цветовое пространство            : YUV
Подвыборка цветности             : 4:2:0
Битовая глубина                  : 8 бит
Тип развёртки                    : Прогрессивная
Бит/(Пиксели*Кадры)              : 0.087
Размер потока                    : 108 Мбайт (97%)
Библиотека кодирования           : x264 core 129
Настройки программы              : cabac=1 / ref=1 / deblock=1:0:0 / analyse=0x1:0x131 / me=dia / subme=2 / psy=1 / psy_rd=1.00:0.00 / mixed_ref=0 / me_range=16 / chroma_me=1 / trellis=0 / 8x8dct=0 / cqm=0 / deadzone=21,11 / fast_pskip=1 / chroma_qp_offset=0 / threads=2 / lookahead_threads=1 / sliced_threads=0 / nr=0 / decimate=1 / interlaced=0 / bluray_compat=0 / constrained_intra=0 / bframes=0 / weightp=2 / keyint=250 / keyint_min=25 / scenecut=40 / intra_refresh=0 / rc_lookahead=40 / rc=abr / mbtree=1 / bitrate=4496 / ratetol=1.0 / qcomp=0.60 / qpmin=10 / qpmax=51 / qpstep=4 / ip_ratio=1.41 / aq=1:1.00
Дата кодирования                 : UTC 2015-04-27 20:41:27
Дата пометки                     : UTC 2015-04-27 20:41:27
Аудио
Идентификатор                    : 2
Формат                           : AAC
Формат/Информация                : Advanced Audio Codec
Профиль формата                  : LC
Идентификатор кодека             : 40
Продолжительность                : 3 м. 31 с.
Вид битрейта                     : Переменный
Битрейт                          : 144 Кбит/сек
Максимальный битрейт             : 176,4 Кбит/сек
Каналы                           : 2 канала
Расположение каналов             : Front: L R
Частота                          : 44,1 КГц
Метод сжатия                     : С потерями
Размер потока                    : 3,63 Мбайт (3%)
Дата кодирования                 : UTC 2015-04-27 20:41:27
Дата пометки                     : UTC 2015-04-27 20:41:27
Общее
Полное имя                       : E:\VA - Весенний марафон № 167 (Новый Dance Хит Парад)\Twin Shadow - I"m Ready (Official Video).mp4
Формат                           : MPEG-4
Профиль формата                  : Base Media
Идентификатор кодека             : isom
Размер файла                     : 112 Мбайт
Продолжительность                : 3 м. 39 с.
Общий поток                      : 4283 Кбит/сек
Дата кодирования                 : UTC 2015-04-10 22:56:38
Дата пометки                     : UTC 2015-04-10 22:56:38
Программа кодирования            : Lavf54.63.104
Видео
Идентификатор                    : 1
Формат                           : AVC
Формат/Информация                : Advanced Video Codec
Профиль формата                  : [url=mailto:Main@L4.0]Main@L4.0[/url]
Параметр CABAC формата           : Да
Параметр ReFrames формата        : 1 кадр
Идентификатор кодека             : avc1
Идентификатор кодека/Информация  : Advanced Video Coding
Продолжительность                : 3 м. 39 с.
Вид битрейта                     : Переменный
Битрейт                          : 4131 Кбит/сек
Номинальный битрейт              : 4496 Кбит/сек
Ширина                           : 1920 пикс.
Высота                           : 1080 пикс.
Соотношение сторон               : 16:9
Режим частоты кадров             : Постоянный
Частота кадров                   : 25,000 кадр/сек
Цветовое пространство            : YUV
Подвыборка цветности             : 4:2:0
Битовая глубина                  : 8 бит
Тип развёртки                    : Прогрессивная
Бит/(Пиксели*Кадры)              : 0.080
Размер потока                    : 108 Мбайт (96%)
Библиотека кодирования           : x264 core 129
Настройки программы              : cabac=1 / ref=1 / deblock=1:0:0 / analyse=0x1:0x131 / me=dia / subme=2 / psy=1 / psy_rd=1.00:0.00 / mixed_ref=0 / me_range=16 / chroma_me=1 / trellis=0 / 8x8dct=0 / cqm=0 / deadzone=21,11 / fast_pskip=1 / chroma_qp_offset=0 / threads=2 / lookahead_threads=1 / sliced_threads=0 / nr=0 / decimate=1 / interlaced=0 / bluray_compat=0 / constrained_intra=0 / bframes=0 / weightp=2 / keyint=250 / keyint_min=25 / scenecut=40 / intra_refresh=0 / rc_lookahead=40 / rc=abr / mbtree=1 / bitrate=4496 / ratetol=1.0 / qcomp=0.60 / qpmin=10 / qpmax=51 / qpstep=4 / ip_ratio=1.41 / aq=1:1.00
Дата кодирования                 : UTC 2015-04-10 22:56:38
Дата пометки                     : UTC 2015-04-10 22:56:38
Аудио
Идентификатор                    : 2
Формат                           : AAC
Формат/Информация                : Advanced Audio Codec
Профиль формата                  : LC
Идентификатор кодека             : 40
Продолжительность                : 3 м. 39 с.
Вид битрейта                     : Переменный
Битрейт                          : 144 Кбит/сек
Максимальный битрейт             : 176,4 Кбит/сек
Каналы                           : 2 канала
Расположение каналов             : Front: L R
Частота                          : 44,1 КГц
Метод сжатия                     : С потерями
Размер потока                    : 3,84 Мбайт (3%)
Дата кодирования                 : UTC 2015-04-10 22:56:38
Дата пометки                     : UTC 2015-04-10 22:56:38
Общее
Полное имя                       : E:\VA - Весенний марафон № 167 (Новый Dance Хит Парад)\Yamira ft. Mattyas - Waterfalls (Official Video).mp4
Формат                           : MPEG-4
Профиль формата                  : Base Media
Идентификатор кодека             : isom
Размер файла                     : 109 Мбайт
Продолжительность                : 3 м. 19 с.
Общий поток                      : 4562 Кбит/сек
Дата кодирования                 : UTC 2015-04-30 16:02:58
Дата пометки                     : UTC 2015-04-30 16:02:58
Программа кодирования            : Lavf54.63.104
Видео
Идентификатор                    : 1
Формат                           : AVC
Формат/Информация                : Advanced Video Codec
Профиль формата                  : [url=mailto:Main@L4.0]Main@L4.0[/url]
Параметр CABAC формата           : Да
Параметр ReFrames формата        : 1 кадр
Идентификатор кодека             : avc1
Идентификатор кодека/Информация  : Advanced Video Coding
Продолжительность                : 3 м. 19 с.
Вид битрейта                     : Переменный
Битрейт                          : 4496 Кбит/сек
Ширина                           : 1920 пикс.
Высота                           : 1080 пикс.
Соотношение сторон               : 16:9
Режим частоты кадров             : Постоянный
Частота кадров                   : 25,000 кадр/сек
Цветовое пространство            : YUV
Подвыборка цветности             : 4:2:0
Битовая глубина                  : 8 бит
Тип развёртки                    : Прогрессивная
Бит/(Пиксели*Кадры)              : 0.087
Размер потока                    : 105 Мбайт (97%)
Библиотека кодирования           : x264 core 129
Настройки программы              : cabac=1 / ref=1 / deblock=1:0:0 / analyse=0x1:0x131 / me=dia / subme=2 / psy=1 / psy_rd=1.00:0.00 / mixed_ref=0 / me_range=16 / chroma_me=1 / trellis=0 / 8x8dct=0 / cqm=0 / deadzone=21,11 / fast_pskip=1 / chroma_qp_offset=0 / threads=2 / lookahead_threads=1 / sliced_threads=0 / nr=0 / decimate=1 / interlaced=0 / bluray_compat=0 / constrained_intra=0 / bframes=0 / weightp=2 / keyint=250 / keyint_min=25 / scenecut=40 / intra_refresh=0 / rc_lookahead=40 / rc=abr / mbtree=1 / bitrate=4496 / ratetol=1.0 / qcomp=0.60 / qpmin=10 / qpmax=51 / qpstep=4 / ip_ratio=1.41 / aq=1:1.00
Дата кодирования                 : UTC 2015-04-30 16:02:58
Дата пометки                     : UTC 2015-04-30 16:02:58
Аудио
Идентификатор                    : 2
Формат                           : AAC
Формат/Информация                : Advanced Audio Codec
Профиль формата                  : LC
Идентификатор кодека             : 40
Продолжительность                : 3 м. 19 с.
Вид битрейта                     : Переменный
Битрейт                          : 152 Кбит/сек
Максимальный битрейт             : 176,4 Кбит/сек
Каналы                           : 2 канала
Расположение каналов             : Front: L R
Частота                          : 44,1 КГц
Метод сжатия                     : С потерями
Размер потока                    : 3,62 Мбайт (3%)
Дата кодирования                 : UTC 2015-04-30 16:02:58
Дата пометки                     : UTC 2015-04-30 16:02:58

[Цитировать]



Показать сообщения:    

Текущее время: 09-Дек 06:58

Часовой пояс: UTC + 3


Вы не можете начинать темы
Вы не можете отвечать на сообщения
Вы не можете редактировать свои сообщения
Вы не можете удалять свои сообщения
Вы не можете голосовать в опросах
Вы не можете прикреплять файлы к сообщениям
Вы не можете скачивать файлы

!ВНИМАНИЕ!
Сайт не предоставляет электронные версии произведений, а занимается лишь коллекционированием и каталогизацией ссылок, присылаемых и публикуемых на форуме нашими читателями. Если вы являетесь правообладателем какого-либо представленного материала и не желаете, чтобы ссылка на него находилась в нашем каталоге, свяжитесь с нами, и мы незамедлительно удалим ее. Файлы для обмена на трекере предоставлены пользователями сайта, и администрация не несет ответственности за их содержание. Просьба не заливать файлы, защищенные авторскими правами, а также файлы нелегального содержания!