[ Сегодня идет свободное скачивание без начисления Download ]


Статистика раздачи
Буду качать: [ 1 ]
Качаю: [ 1 ]
Скачал: [ 3 ]
 
   
 
Top  
 
 
-Александр Климов | Визуализация интерьеров и мебели (2014) PCRec- Автор (режиссер): Александр Климов
Жанр: Визуализация, SketchUp
Продолжительность: 08:00:00
Качество видео: PCRec
Видеокодек: AVC
Битрейт видео: ~242 kbps
Размер кадра: 1280x720
Аудиокодек: AAC 2.0
Битрейт аудио: 192 kbps (CBR), 2 Ch, 44100 Hz
Описание:
Вы научитесь моделировать интерьеры и мебель в программе SketchUp. Вы сможете получать фотореалистичные картины интерьеров.. мебели.. и не только… Вам не нужно дополнительно ничего покупать, используемые программы доступны и бесплатны.
Чему научитесь после изучения:
-моделировать интерьеры;
-отдельные предметы мебели;
-устанавливать свет для своих моделей;
-настраивать реалистичные текстуры;
-получать в итоге фотореалистичные картины.

Дополнительная информация:

Курс состоит из трех основных частей.
Часть 1. Моделирование
*Урок 1. В этом уроке Вы научитесь, используя замеры помещения, моделировать стены и проемы для дверей и окон. В процессе моделирования Вы будете знакомится как использовать различные инструментами программы.
*Урок 2. Вы этом уроке Вы узнаете как с помощью простых повторяющихся действий моделируется довольно непростое деревянное окно.
*Урок 3. Вы научитесь моделировать межкомнатную дверь, плинтуса, обналичку . Увидите как различные мелочи добавляют реализма и узнаете откуда эти мелочи берутся. Также Вы получите подборку плагинов для более успешного моделирования
*Урок 4. В этом уроке начинается моделирование мебели. Вы научитесь моделировать письменный стол.
*Урок 5. Здесь Вы учитесь моделировать кровать из дерева и знакомитесь с новым плагином, который помогает быстрее делать модели. И далее начинается моделирование шкафов.
*Урок 6. В этом уроке заканчиваем моделировать шкафы и Вы получаете несколько новых приемов при построении повторяющихся моделей.
*Урок 7. Это дополнительный урок по моделированию. Здесь Вы научитесь с нуля делать довольно сложные модели — на примере мебельной ручки. Также Вы получите дополнительные объяснения по использованию плагинов.
*Урок 8. В этом уроке Вы осваиваете моделирование различных криволинейных поверхностей — на примере подушки и покрывала. Вы также получаете плагины, которые используются для такого моделирования.
Часть 2. Свет и текстуры
*Урок 1. Вы научитесь реалистично раскрашивать свои модели. Узнаете ка накладывать текстуры правильно и без искажений.
*Урок 2. В этом уроке продолжим заниматься текстурами. Вы узнаете как просто изменять масштаб и расположение текстур. Получите дополнительные способы правильного наложения текстур на криволинейные поверхности.
*Урок 3. В этом уроке Вы узнаете как устанавливается свет. Научитесь делать сцены и расставлять камеры. То есть Вы будете практически настраивать кадр для будущей компьютерной фотографии.
Часть 3. Визуализация
*Урок 1. В этом уроке Вы получаете программу визуализации, Вы научитесь переносить Ваши модели для визуализации и получите свою первую визуализацию.
*Урок 2. В этом уроке Вы научитесь настраивать источники света и текстуры и повышать фотореализм своей визуализации. Вы сможете переносить специально настроенные материалы в SketchUp и использовать их для своих моделей.
*Урок 3. В этом уроке Вы получите свою первую фотографию интерьера. Вы сможете провести окончательные настройки модели и программы визуализации для получения наилучшего результата.
*Урок 4. Этот урок посвящен постобработке Ваших визуализаций. Вы узнаете как использовать программу обработки изображений для придания большей «жизни» Вашим картинам.

MediaInfo:

Общее
Формат : MPEG-4
Профиль формата : Base Media
Идентификатор кодека : isom
Размер файла : 59,3 Мбайт
Режим общего битрейта : Переменный
Общий поток : 441 Кбит/сек
Видео
Идентификатор : 1
Формат : AVC
Формат/Информация : Advanced Video Codec
Профиль формата : [email protected]
Параметр CABAC формата : Да
Параметр ReFrames формата : 4 кадра
Параметр GOP формата : M=4, N=50
Идентификатор кодека : avc1
Идентификатор кодека/Информация : Advanced Video Coding
Битрейт : 242 Кбит/сек
Ширина : 1280 пикселей
Высота : 720 пикселей
Соотношение сторон : 16:9
Режим частоты кадров : Постоянный
Частота кадров : 25,000 кадров/сек
Цветовое пространство : YUV
Субдискретизация насыщенности : 4:2:0
Битовая глубина : 8 бит
Тип развёртки : Прогрессивная
Бит/(Пиксели*Кадры) : 0.011
Размер потока : 32,5 Мбайт (55%)
Аудио
Идентификатор : 2
Формат : AAC
Формат/Информация : Advanced Audio Codec
Вид битрейта : Переменный
Битрейт : 192 Кбит/сек
Максимальный битрейт : 484 Кбит/сек
Каналы : 2 канала
Расположение каналов : Front: L R
Частота : 44,1 КГц
Метод сжатия : С потерями
Размер потока : 25,8 Мбайт (44%)
Скриншоты:

[Цитировать]



Показать сообщения:    

Текущее время: 06-Дек 19:07

Часовой пояс: UTC + 3


Вы не можете начинать темы
Вы не можете отвечать на сообщения
Вы не можете редактировать свои сообщения
Вы не можете удалять свои сообщения
Вы не можете голосовать в опросах
Вы не можете прикреплять файлы к сообщениям
Вы не можете скачивать файлы

!ВНИМАНИЕ!
Сайт не предоставляет электронные версии произведений, а занимается лишь коллекционированием и каталогизацией ссылок, присылаемых и публикуемых на форуме нашими читателями. Если вы являетесь правообладателем какого-либо представленного материала и не желаете, чтобы ссылка на него находилась в нашем каталоге, свяжитесь с нами, и мы незамедлительно удалим ее. Файлы для обмена на трекере предоставлены пользователями сайта, и администрация не несет ответственности за их содержание. Просьба не заливать файлы, защищенные авторскими правами, а также файлы нелегального содержания!