[ Сегодня идет свободное скачивание без начисления Download ]


Статистика раздачи
Нет
 
   
 
Top  
 
 
- Сделано в СССР. Советские красавцы (2015) SATRip - Телекомпания: МИР
Жанр: Документальный
Описание:
1917–1991 – это не просто промежуток времени, а целая эпоха со своими особенностями, научными открытиями, спортивными достижениями, культурными феноменами. Эта эпоха оставила наследство, которое до сих пор интересно и актуально. Кто-то все еще ностальгирует по своему советскому детству, проведенному в пионерлагере. У кого-то дома хранятся коллекции марок с Гагариным, фарфоровые комсомольцы и подшивки журнала «Крокодил». Иные пересматривают жизнерадостные комедии тридцатых с Любовью Орловой и послевоенные сказки Александра Роу. Каждый найдет для себя в советской эпохе что-нибудь любопытное и увлекательное.
«Сделано в СССР» - это цикл документальных программ, посвященных советской эстетике и культуре, повседневному быту людей и закулисной жизни кумиров, высокому искусству и скоротечным модам.
Режиссёр: Михаил Диговцов
Продолжительность: ~ 00:23:22
Качество видео: SATRip
Видеокодек: XviD
Битрейт видео: ~1701 kb/s
Размер кадра: 704 x 400
Аудиокодек: MP3, 2ch.
Битрейт аудио: 128 kb/s

Mediainfo:

Формат                                   : AVI
Формат/Информация                        : Audio Video Interleave
Размер файла                             : 306 Мбайт
Продолжительность                        : 23 м.
Общий поток                              : 1833 Кбит/сек
Программа кодирования                    : VirtualDubMod 1.5.10.3 | [url=http://www.virtualdub-fr.org]www.virtualdub-fr.org[/url] || (build 2550/release)
Библиотека кодирования                   : VirtualDubMod build 2550/release
Видео
Идентификатор                            : 0
Формат                                   : MPEG-4 Visual
Профиль формата                          : Advanced Simple@L5
Параметр BVOP формата                    : 1
Параметр QPel формата                    : Нет
Параметр GMC формата                     : Без точки перехода
Параметр матрицы формата                 : Default (H.263)
Идентификатор кодека                     : XVID
Идентификатор кодека/Подсказка           : XviD
Продолжительность                        : 23 м.
Битрейт                                  : 1695 Кбит/сек
Ширина                                   : 704 пикселя
Высота                                   : 400 пикселей
Соотношение сторон                       : 16:9
Частота кадров                           : 25,000 кадров/сек
Цветовое пространство                    : YUV
Субдискретизация насыщенности            : 4:2:0
Битовая глубина                          : 8 бит
Тип развёртки                            : Прогрессивная
Метод сжатия                             : С потерями
Бит/(Пиксели*Кадры)                      : 0.241
Размер потока                            : 283 Мбайт (92%)
Библиотека кодирования                   : XviD 1.2.1 (UTC 2008-12-04)
Аудио
Идентификатор                            : 1
Формат                                   : MPEG Audio
Версия формата                           : Version 1
Профиль формата                          : Layer 3
Идентификатор кодека                     : 55
Идентификатор кодека/Подсказка           : MP3
Продолжительность                        : 23 м.
Вид битрейта                             : Постоянный
Битрейт                                  : 128 Кбит/сек
Каналы                                   : 2 канала
Частота                                  : 48,0 КГц
Метод сжатия                             : С потерями
Размер потока                            : 21,4 Мбайт (7%)
Выравнивание                             : Соединение по промежуткам
Продолжительность промежутка             : 40  мс. (1,00 видеокадр)
Время предзагрузки промежутка            : 504  мс.
Библиотека кодирования                   : LAME3.99r
Настройки программы                      : -m s -V 4 -q 2 -lowpass 17 -b 128

В выпуске:

Красивая внешность для мужчины - не столько подарок, сколько помеха. Труднее получить роль, отказать высоко поставленной даме, побороть соблазны успешной жизни. Советские красавцы настойчиво боролись со стереотипами: одни успешно, другие тщетно. В этой борьбе главное - в самом начале задать себе высокую планку. Как это сделали, например, актер Вячеслав Тихонов или певец Муслим Магомаев. Как Вячеслав Тихонов покорял женщин, что дало обаяние Муслиму Магомаеву и кого считали секс-символом в Союзе.
Скриншоты:

[Цитировать]



Показать сообщения:    

Текущее время: 02-Дек 21:03

Часовой пояс: UTC + 3


Вы не можете начинать темы
Вы не можете отвечать на сообщения
Вы не можете редактировать свои сообщения
Вы не можете удалять свои сообщения
Вы не можете голосовать в опросах
Вы не можете прикреплять файлы к сообщениям
Вы не можете скачивать файлы

!ВНИМАНИЕ!
Сайт не предоставляет электронные версии произведений, а занимается лишь коллекционированием и каталогизацией ссылок, присылаемых и публикуемых на форуме нашими читателями. Если вы являетесь правообладателем какого-либо представленного материала и не желаете, чтобы ссылка на него находилась в нашем каталоге, свяжитесь с нами, и мы незамедлительно удалим ее. Файлы для обмена на трекере предоставлены пользователями сайта, и администрация не несет ответственности за их содержание. Просьба не заливать файлы, защищенные авторскими правами, а также файлы нелегального содержания!