[ Сегодня идет свободное скачивание без начисления Download ]


Статистика раздачи
Нет
 
   
 
Top  
 
 
Мертвые пледов не носят /
Мертвецы не носят клетчатое
| Dead Men Don't Wear Plaid |

Информация о фильме
Название: Мертвые пледов не носят (Мертвецы не носят клетчатое)
Оригинальное название: Dead Men Don't Wear Plaid
Год выхода: 1982
Жанр: триллер, комедия, криминал, детектив
Режиссер: Карл Райнер
В ролях: Стив Мартин, Рэйчел Уорд, Алан Лэдд, Карл Райнер, Барбара Стэнвик, Бёрт Ланкастер, Хэмфри Богарт, Ава Гарднер, Кэри Грант, Ингрид Бергман, Вероника Лэйк, Бетт Дэвис, Лана Тёрнер, Кирк Дуглас, Чарльз Лотон, Винсент Прайс
О фильме: Пародия на криминальные фильмы 40-х годов. В картине использованы кадры из старых фильмов с известнейшими актерами тех лет. Джулия Форрест убеждена, что гибель ее отца в автокатастрофе не была несчастным случаем. Чтобы доказать, что это убийство, женщина нанимает частного детектива Ригби Рирдона. В ходе расследования Рирдон выходит на след неонацистской организации, захватившей отца Джулии в плен…

Страна: США
Студия: Aspen Film Society, Universal Pictures
Продолжительность: 01:28:36
Перевод: Профессиональный многоголосый, авторский
Файл
Кодек: h.264
Качество: BDRip-AVC
Видео: 3177 Кбит/с, 1024x550, 23.976 кадр/с
Звук:
• №1: Русский (AC3, 2 ch, 192 Кбит/с) Профессиональный многоголосый [NeoClassica]
• №2: Русский (AC3, 2 ch, 192 Кбит/с) Авторский одноголосый [Алексей Михалев]
• №3: Английский (AC3, 2 ch, 192 Кбит/с)
Отдельно:
• №4: Русский (AC3, 2 ch, 192 Кбит/с) Профессиональный многоголосый [ОРТ]
• №5: Русский (AC3, 2 ch, 192 Кбит/с) Профессиональный многоголосый [СТС]
• №6: Русский (AC3, 2 ch, 192 Кбит/с) Авторский одноголосый [Андрей Дольский]
• №7: Русский (AC3, 2 ch, 192 Кбит/с) Авторский одноголосый [Петр Карцев]
• №8: Украинский (AC3, 2 ch, 192 Кбит/с) Профессиональный многоголосый [ICTV]
Субтитры: Русские, английские (полные, SDH)

MediaInfo

----------------------------------------------------------------------------------------------------
x264 [info]: frame I:973 Avg QP:18.39 size: 72312
x264 [info]: frame P:24656 Avg QP:21.09 size: 31259
x264 [info]: frame B:101838 Avg QP:23.68 size: 12469
x264 [info]: consecutive B-frames: 1.2% 1.1% 4.2% 16.0% 16.1% 49.1% 6.6% 2.2% 1.5% 0.7% 0.3% 0.3% 0.7%
----------------------------------------------------------------------------------------------------
Полное имя : Dead.Men.Don't.Wear.Plaid.1982.x264.BDRip-AVC.0ptimus.mkv
Формат : Matroska
Версия формата : Version 2
Размер файла : 2,32 Гбайт
Продолжительность : 1 ч. 28 м.
Общий поток : 3744 Кбит/сек
Название фильма : Мертвые пледов не носят | Dead Men Don't Wear Plaid [1982] -= BDRip (AVC) by 0ptimus =-
Дата кодирования : UTC 2015-05-12 06:15:54
Программа кодирования : mkvmerge v6.6.0 ('The Edge Of The In Between') built on Dec 1 2013 17:55:00
Библиотека кодирования : libebml v1.3.0 + libmatroska v1.4.1
Видео
Идентификатор : 1
Формат : AVC
Формат/Информация : Advanced Video Codec
Профиль формата : High@L4.1
Параметр CABAC формата : Да
Параметр ReFrames формата : 9 кадров
Идентификатор кодека : V_MPEG4/ISO/AVC
Продолжительность : 1 ч. 28 м.
Битрейт : 3177 Кбит/сек
Ширина : 1024 пикселя
Высота : 550 пикселей
Соотношение сторон : 1,85:1
Режим частоты кадров : Постоянный
Частота кадров : 23,976 кадра/сек
Цветовое пространство : YUV
Субдискретизация насыщенности : 4:2:0
Битовая глубина : 8 бит
Тип развёртки : Прогрессивная
Бит/(Пиксели*Кадры) : 0.235
Размер потока : 1,91 Гбайт (83%)
Заголовок : Rip by 0ptimus
Библиотека кодирования : x264 core 133 r2334 a3ac64b
Настройки программы : cabac=1 / ref=9 / deblock=1:-3:-3 / analyse=0x3:0x113 / me=umh / subme=11 / psy=1 / psy_rd=1.00:0.20 / mixed_ref=1 / me_range=32 / chroma_me=1 / trellis=2 / 8x8dct=1 / cqm=0 / deadzone=21,11 / fast_pskip=0 / chroma_qp_offset=-3 / threads=3 / lookahead_threads=1 / sliced_threads=0 / nr=0 / decimate=0 / interlaced=0 / bluray_compat=0 / constrained_intra=0 / bframes=12 / b_pyramid=2 / b_adapt=2 / b_bias=0 / direct=3 / weightb=1 / open_gop=0 / weightp=2 / keyint=240 / keyint_min=23 / scenecut=40 / intra_refresh=0 / rc_lookahead=40 / rc=2pass / mbtree=0 / bitrate=3177 / ratetol=1.0 / qcomp=0.60 / qpmin=0 / qpmax=69 / qpstep=4 / cplxblur=20.0 / qblur=0.5 / vbv_maxrate=50000 / vbv_bufsize=50000 / nal_hrd=none / ip_ratio=1.40 / pb_ratio=1.30 / aq=1:1.00
Язык : English
Default : Да
Forced : Да
Аудио #1
Идентификатор : 2
Формат : AC-3
Формат/Информация : Audio Coding 3
Расширение режима : CM (complete main)
Параметр Endianness формата : Big
Идентификатор кодека : A_AC3
Продолжительность : 1 ч. 28 м.
Вид битрейта : Постоянный
Битрейт : 192 Кбит/сек
Каналы : 2 канала
Расположение каналов : Front: L R
Частота : 48,0 КГц
Битовая глубина : 16 бит
Метод сжатия : С потерями
Размер потока : 122 Мбайт (5%)
Заголовок : Многоголосый [Neoclassica]
Язык : Russian
Default : Да
Forced : Да
Аудио #2
Идентификатор : 3
Формат : AC-3
Формат/Информация : Audio Coding 3
Расширение режима : CM (complete main)
Параметр Endianness формата : Big
Идентификатор кодека : A_AC3
Продолжительность : 1 ч. 28 м.
Вид битрейта : Постоянный
Битрейт : 192 Кбит/сек
Каналы : 2 канала
Расположение каналов : Front: L R
Частота : 48,0 КГц
Битовая глубина : 16 бит
Метод сжатия : С потерями
Размер потока : 122 Мбайт (5%)
Заголовок : Авторский [Алексей Михалев]
Язык : Russian
Default : Нет
Forced : Нет
Аудио #3
Идентификатор : 4
Формат : AC-3
Формат/Информация : Audio Coding 3
Расширение режима : CM (complete main)
Параметр Endianness формата : Big
Идентификатор кодека : A_AC3
Продолжительность : 1 ч. 28 м.
Вид битрейта : Постоянный
Битрейт : 192 Кбит/сек
Каналы : 2 канала
Расположение каналов : Front: L R
Частота : 48,0 КГц
Битовая глубина : 16 бит
Метод сжатия : С потерями
Размер потока : 122 Мбайт (5%)
Язык : English
Default : Нет
Forced : Нет
Текст #1
Идентификатор : 5
Формат : UTF-8
Идентификатор кодека : S_TEXT/UTF8
Идентификатор кодека/Информация : UTF-8 Plain Text
Язык : Russian
Default : Нет
Forced : Нет
Текст #2
Идентификатор : 6
Формат : UTF-8
Идентификатор кодека : S_TEXT/UTF8
Идентификатор кодека/Информация : UTF-8 Plain Text
Язык : English
Default : Нет
Forced : Нет
Текст #3
Идентификатор : 7
Формат : UTF-8
Идентификатор кодека : S_TEXT/UTF8
Идентификатор кодека/Информация : UTF-8 Plain Text
Заголовок : SDH
Язык : English
Default : Нет
Forced : Нет
Меню
00:00:00.000 : :Chapter 01
00:00:00.375 : :Chapter 02
00:11:09.417 : :Chapter 03
00:21:16.275 : :Chapter 04
00:33:23.251 : :Chapter 05
00:43:51.378 : :Chapter 06
00:55:46.468 : :Chapter 07
01:05:53.950 : :Chapter 08
01:16:22.077 : :Chapter 09

Скриншоты

[Цитировать]



Показать сообщения:    

Текущее время: 10-Дек 13:55

Часовой пояс: UTC + 3


Вы не можете начинать темы
Вы не можете отвечать на сообщения
Вы не можете редактировать свои сообщения
Вы не можете удалять свои сообщения
Вы не можете голосовать в опросах
Вы не можете прикреплять файлы к сообщениям
Вы не можете скачивать файлы

!ВНИМАНИЕ!
Сайт не предоставляет электронные версии произведений, а занимается лишь коллекционированием и каталогизацией ссылок, присылаемых и публикуемых на форуме нашими читателями. Если вы являетесь правообладателем какого-либо представленного материала и не желаете, чтобы ссылка на него находилась в нашем каталоге, свяжитесь с нами, и мы незамедлительно удалим ее. Файлы для обмена на трекере предоставлены пользователями сайта, и администрация не несет ответственности за их содержание. Просьба не заливать файлы, защищенные авторскими правами, а также файлы нелегального содержания!