[ Сегодня идет свободное скачивание без начисления Download ]


Статистика раздачи
Нет
 
   
 
Top  
 
 
Лесник 3 Год выпуска: 2014
Производство: Мостелефильм
Жанр: Криминал, детектив
Продолжительность: ~00:44:00
Субтитры: нет
Режиссёр: Виктор Конисевич, Сергей Артимович
В ролях: Анна Большова, Александр Цуркан, Михаил Васьков, Олег Штефанко, Алексей Булдаков, Артём Федотов, Николай Зазуля, Олег Кленов, Евгений Пилипенко, Яна Львова, Тимофей Смирнов, Яна Кошкина, Марина Казанкова, Андрей Курилов, Руслан Спояло, Мария Матто, Рустам Махмутов, Павел Фартуков, Валерий Шумский, Максим Дромашко, Андрей Стоянов, Мария Викторова, Олег Карин, Владимир Ширяев, Елена Никитина, Евгений Морозов, Анастасия Королькова, Виктор Мютников, Ольга Приходько, Сергей Гришаков, Владимир Зайцев, Юлия Куварзина, Михаил Процько, Денис Сухомлинов, Владимир Тимофеев, Михаил Солодко, Николай Сморчков, Вера Пересветова, Анатолий Котенёв, Александр Пальчиков, Александр Никольский, Павел Черн
Описание:
Продолжение сериала о бывшем спецназовце Леониде Зубове (Олег Штефанко), который работает лесником в тайге.
В новых сериях Зубов и его единомышленники продолжат раскрывать преступления, связанные с браконьерством, незаконным предпринимательством и криминалом на вверенной им территории, а также оказывать помощь жителям местных деревенек – Ольховки и Иванисовки.
В новом сезоне отношения между полюбившимися героями сериала будут развиваться захватывающе. Сивый (Алексей Булдаков) наконец обретет личное счастье: он женится на местной библиотекарше Марии Миловановой (Ирина Аверина). А вот Зубову придется нелегко: он потеряет свою возлюбленную Елену, и его жизнь начнет катиться под откос…
Единственная цель, которую будет преследовать Зубов, – это найти убийц любимой женщины и отомстить им. Удастся ли ему это сделать и не превратиться в злодея, смотрите в новых сериях детектива «Лесник».

Качество: SATRip
Формат: AVI
Видео кодек: XviD
Аудио кодек: АС-3
Видео: 720x400 (1.80:1), 25 fps, XviD build 50 ~1542 kbps avg, 0.214 bit/pixel
Аудио: 48 kHz, AC3 Dolby Digital, 2/0 (L,R) ch, ~192.00 kbps avg
Сторонней рекламы нет!

MediaInfo

GeneralComplete name : D:\исходники\Лесник-3.2014.SATRip.RG.Russkie.serialy.&.Files-x\01.Лесник-3.2014.SATRip.RG.Russkie.serialy.&.Files-x.aviFormat : AVIFormat/Info : Audio Video InterleaveFile size : 551 MiBDuration : 44mn 8sOverall bit rate : 1 745 KbpsWriting application : Lavf53.19.0Writing library : VirtualDub build 35491/release
VideoID : 0Format : MPEG-4 VisualFormat profile : Advanced [email protected] settings, BVOP : 1Format settings, QPel : NoFormat settings, GMC : No warppointsFormat settings, Matrix : CustomCodec ID : XVIDCodec ID/Hint : XviDDuration : 44mn 8sBit rate : 1 542 KbpsWidth : 720 pixelsHeight : 400 pixelsDisplay aspect ratio : 16:9Frame rate : 25.000 fpsColor space : YUVChroma subsampling : 4:2:0Bit depth : 8 bitsScan type : ProgressiveCompression mode : LossyBits/(Pixel*Frame) : 0.214Stream size : 487 MiB (88%)Writing library : XviD 73
AudioID : 1Format : AC-3Format/Info : Audio Coding 3Mode extension : CM (complete main)Format settings, Endianness : BigCodec ID : 2000Duration : 44mn 8sBit rate mode : ConstantBit rate : 192 KbpsChannel(s) : 2 channelsChannel positions : Front: L RSampling rate : 48.0 KHzBit depth : 16 bitsCompression mode : LossyStream size : 60.6 MiB (11%)Alignment : Aligned on interleavesInterleave, duration : 32 ms (0.80 video frame)Interleave, preload duratio : 512 ms

Внимание ! Раздача ведётся путём добавления новых серий

Внимание! Раздача ведётся путём добавления новых серий; при каждом добавлении создётся новый торрент. Чтобы начать докачку новой серии, пользователям необходимо сделать следующее:
(1) остановить скачивание,
(2) удалить старый торрент у себя из клиента (старые серии удалять не надо),
(3) скачать новый торрент и запустить его у себя в клиенте вместо старого, при этом указать клиенту путь в старую папку куда и должно происходить скачивание новых серий.
Ваш клиент при этом должен произвести хеширование (проверку) старой папки (если не производит сам - помогите ему сделать это), и будет докачивать только те серии которых у вас ещё нет. Старые серии при этом не удаляются, а продолжают раздаваться!
Eсли вы уже удалили старые серии, то предотвратить повторную закачку старых серий можно, отжав галочку в соответсвующих местах при запуске нового торрента. По возможности, желательно не удалять старые серии как можно дольше чтобы релизёр не столько продолжал раздавать старые серии, а смог сконцентрироваться на новых.

Скриншоты

[Цитировать]



Показать сообщения:    

Текущее время: 05-Дек 23:42

Часовой пояс: UTC + 3


Вы не можете начинать темы
Вы не можете отвечать на сообщения
Вы не можете редактировать свои сообщения
Вы не можете удалять свои сообщения
Вы не можете голосовать в опросах
Вы не можете прикреплять файлы к сообщениям
Вы не можете скачивать файлы

!ВНИМАНИЕ!
Сайт не предоставляет электронные версии произведений, а занимается лишь коллекционированием и каталогизацией ссылок, присылаемых и публикуемых на форуме нашими читателями. Если вы являетесь правообладателем какого-либо представленного материала и не желаете, чтобы ссылка на него находилась в нашем каталоге, свяжитесь с нами, и мы незамедлительно удалим ее. Файлы для обмена на трекере предоставлены пользователями сайта, и администрация не несет ответственности за их содержание. Просьба не заливать файлы, защищенные авторскими правами, а также файлы нелегального содержания!