[ Сегодня идет свободное скачивание без начисления Download ]


Статистика раздачи
Нет
 
   
 
Top  
 
 
Информация о фильме
Название: Пришельцы
Оригинальное название: Extraterrestrial
Год выхода: 2014
Жанр: ужасы, фантастика
Режиссер: Колин Минихан
В ролях: Бриттани Аллен, Фредди Строма, Мелани Папалиа, Джесси Мосс, Аня Савчич, Шон Роджерсон, Эмили Перкинс, Майк Ковач, Йен Браун, Фред Китинг--О фильме:
Человечество давно подозревает, что не одиноко во Вселенной. Загадочные вспышки в ночном небе, летательные аппараты явно неземного происхождения, таинственные исчезновения людей — это ли не свидетельства существования иного разума? Многие с нетерпением ждут встречи с представителями внеземной цивилизации. А вдруг они давно уже здесь? И по соглашению с правительством используют Землю как большой полигон для научных экспериментов? Тогда главное — не вмешиваться.--Страна: Канада
Студия: Abduction Films, Manis Film, Pink Buffalo Films, Twin Engine Films, Vicarious Entertainment
Продолжительность: 01:40:38
Перевод: Профессиональный (многоголосый закадровый) - ViruseProject--Файл
Кодек: h264
Качество: BDRip 720
Видео: 1280x534 (2.40:1), 2720 kbps, 23.976 fps
Звук: Русский (AC-3, 6ch, 384 kbps)
Английский (AC-3, 6ch, 448 kbps)
Субтитры: русские, английские--

Лог

x264 [info]: frame I:953 Avg QP:12.60 size: 81999
x264 [info]: frame P:36013 Avg QP:15.51 size: 27255
x264 [info]: frame B:107815 Avg QP:17.66 size: 9202
x264 [info]: consecutive B-frames: 3.4% 4.4% 10.6% 30.0% 15.6% 30.2% 3.9% 0.8% 1.1%

MI

Video
ID : 1
Format : AVC
Format/Info : Advanced Video Codec
Format profile : [email protected]
Format settings, CABAC : Yes
Format settings, ReFrames : 10 frames
Codec ID : V_MPEG4/ISO/AVC
Duration : 1h 40mn
Bit rate : 2 720 Kbps
Width : 1 280 pixels
Height : 534 pixels
Display aspect ratio : 2.40:1
Original display aspect ratio : 2.40:1
Frame rate mode : Constant
Frame rate : 23.976 fps
Color space : YUV
Chroma subsampling : 4:2:0
Bit depth : 8 bits
Scan type : Progressive
Bits/(Pixel*Frame) : 0.166
Stream size : 1.87 GiB (86%)
Writing library : x264 core 146 r2538kMod 121396c
Encoding settings : cabac=1 / ref=10 / deblock=1:0:0 / analyse=0x3:0x133 / me=umh / subme=9 / psy=1 / fade_compensate=0.00 / psy_rd=1.00:0.00 / mixed_ref=1 / me_range=32 / chroma_me=1 / trellis=2 / 8x8dct=1 / cqm=0 / deadzone=21,11 / fast_pskip=0 / chroma_qp_offset=-2 / threads=2 / lookahead_threads=1 / sliced_threads=0 / nr=0 / decimate=1 / interlaced=0 / bluray_compat=0 / constrained_intra=0 / fgo=0 / bframes=8 / b_pyramid=2 / b_adapt=2 / b_bias=0 / direct=3 / weightb=1 / open_gop=0 / weightp=2 / keyint=240 / keyint_min=23 / scenecut=40 / intra_refresh=0 / rc_lookahead=40 / rc=2pass / mbtree=1 / bitrate=2720 / ratetol=1.0 / qcomp=0.60 / qpmin=0 / qpmax=69 / qpstep=4 / cplxblur=20.0 / qblur=0.5 / ip_ratio=1.40 / aq=1:1.00
Default : Yes
Forced : No
Audio
ID : 2
Format : AC-3
Format/Info : Audio Coding 3
Mode extension : CM (complete main)
Format settings, Endianness : Big
Codec ID : A_AC3
Duration : 1h 40mn
Bit rate mode : Constant
Bit rate : 384 Kbps
Channel count : 6 channels
Channel positions : Front: L C R, Side: L R, LFE
Sampling rate : 48.0 KHz
Bit depth : 16 bits
Compression mode : Lossy
Stream size : 276 MiB (12%)
Title : MVO (ViruseProject)
Language : Russian
Default : Yes
Forced : No
Text #1
ID : 3
Format : UTF-8
Codec ID : S_TEXT/UTF8
Codec ID/Info : UTF-8 Plain Text
Language : Russian
Default : Yes
Forced : No
Text #2
ID : 4
Format : UTF-8
Codec ID : S_TEXT/UTF8
Codec ID/Info : UTF-8 Plain Text
Language : <a href="http://cityadspix.com/tsclick-BQCE4WRF-SLZKVXTQ?&sa=1559&sa2=mh-ts&sa3=&sa4=&sa5=&bt=20&pt=9&lt=2&tl=1&im=MTc1NS0wLTE0MzE2MzQ5ODMtMTQxNDc2MzM%3D&fid=NDQ1NzU2Nzc1&kw=English" target="_blank" alt="mba.ru" title="mba.ru" style="">English</a>
Default : No
Forced : No
--

Скриншоты

[Цитировать]



Показать сообщения:    

Текущее время: 06-Дек 05:55

Часовой пояс: UTC + 3


Вы не можете начинать темы
Вы не можете отвечать на сообщения
Вы не можете редактировать свои сообщения
Вы не можете удалять свои сообщения
Вы не можете голосовать в опросах
Вы не можете прикреплять файлы к сообщениям
Вы не можете скачивать файлы

!ВНИМАНИЕ!
Сайт не предоставляет электронные версии произведений, а занимается лишь коллекционированием и каталогизацией ссылок, присылаемых и публикуемых на форуме нашими читателями. Если вы являетесь правообладателем какого-либо представленного материала и не желаете, чтобы ссылка на него находилась в нашем каталоге, свяжитесь с нами, и мы незамедлительно удалим ее. Файлы для обмена на трекере предоставлены пользователями сайта, и администрация не несет ответственности за их содержание. Просьба не заливать файлы, защищенные авторскими правами, а также файлы нелегального содержания!