[ Сегодня идет свободное скачивание без начисления Download ]


Статистика раздачи
Нет
 
   
 
Top  
 
 
-Территория (2015) WEB-DL [H.264/1080p-LQ] - Производство: Россия / Кинокомпания «Андреевский флаг»
Жанр: Драма, Приключения
Режиссер: Александр Мельник
Актеры: Константин Лавроненко, Григорий Добрыгин, Егор Бероев, Ксения Кутепова, Евгений Цыганов, Владислав Абашин, Герасим Васильев, Константин Шелестун, Константин Балакирев, Олег Шапков
Описание:
Территория - это место, где люди проверяются на прочность. Необозримые пространства, где тундра встречается с ледяными торосами Ледовитого океана. Суровый русский север, которому способны бросить вызов немногие. Геолог Илья Чинков, одержимый идеей найти легендарное золото Территории, собирает команду смельчаков, готовых поставить на карту все, включая

Дата премьеры в РФ: 16 апреля 2015, «Вольга»
Дата выхода DVD/Blu-ray релиза: 19 мая 2015, «Lizard Cinema Trade»,
Продолжительность: 02:31:37
Качество видео: WEB-DL 1080p-LQ
Перевод: Не требуется (русский) iTunes
Субтитры: Отсутствуют
Видеокодек: MPEG-4 AVC/H.264
Битрейт видео: ~4362 kb/s
Размер кадра: 1920x800
Аудиокодек: AC3 5.1
Битрейт аудио: 384 kb/s
Сэмпл: Скачать

Mediainfo:

Общее
Уникальный идентификатор                 : 177293522882948196744136187213838257457 (0x85617D8F38615187B28BD92198E78D31)
Полное имя                               : Terriroriy.2015.O.WEB-DL.1080p.nnm-club.mkv
Формат                                   : Matroska
Версия формата                           : Version 4 / Version 2
Размер файла                             : 5,14 Гбайт
Продолжительность                        : 2 ч. 31 м.
Общий поток                              : 4842 Кбит/сек
Дата кодирования                         : UTC 2015-05-14 18:32:18
Программа кодирования                    : mkvmerge v7.6.0 ("Garden of Dreams") 32bit built on Feb  8 2015 12:51:39
Библиотека кодирования                   : libebml v1.3.1 + libmatroska v1.4.2
DURATION                                 : 02:31:52.320000000
NUMBER_OF_FRAMES                         : 284760
NUMBER_OF_BYTES                          : 437391360
_STATISTICS_WRITING_APP                  : mkvmerge v7.6.0 ("Garden of Dreams") 32bit built on Feb  8 2015 12:51:39
_STATISTICS_WRITING_DATE_UTC             : 2015-05-14 18:32:18
_STATISTICS_TAGS                         : BPS DURATION NUMBER_OF_FRAMES NUMBER_OF_BYTES
Видео
Идентификатор                            : 1
Формат                                   : AVC
Формат/Информация                        : Advanced Video Codec
Профиль формата                          : [url=mailto:[email protected]][email protected][/url]
Параметр CABAC формата                   : Да
Параметр ReFrames формата                : 5 кадров
Идентификатор кодека                     : V_MPEG4/ISO/AVC
Продолжительность                        : 2 ч. 31 м.
Битрейт                                  : 4362 Кбит/сек
Ширина                                   : 1920 пикселей
Высота                                   : 800 пикселей
Соотношение сторон                       : 2,40:1
Режим частоты кадров                     : Постоянный
Частота кадров                           : 25,000 кадров/сек
Цветовое пространство                    : YUV
Субдискретизация насыщенности            : 4:2:0
Битовая глубина                          : 8 бит
Тип развёртки                            : Прогрессивная
Бит/(Пиксели*Кадры)                      : 0.114
Размер потока                            : 4,63 Гбайт (90%)
Язык                                     : English
Default                                  : Да
Forced                                   : Нет
Основные цвета                           : BT.709
Характеристики трансфера                 : BT.709
Коэффициенты матрицы                     : BT.709
colour_range                             : Limited
Аудио
Идентификатор                            : 2
Формат                                   : AC-3
Формат/Информация                        : Audio Coding 3
Расширение режима                        : CM (complete main)
Параметр Endianness формата              : Big
Идентификатор кодека                     : A_AC3
Продолжительность                        : 2 ч. 31 м.
Вид битрейта                             : Постоянный
Битрейт                                  : 384 Кбит/сек
Каналы                                   : 6 каналов
Расположение каналов                     : Front: L C R, Side: L R, LFE
Частота                                  : 48,0 КГц
Битовая глубина                          : 16 бит
Метод сжатия                             : С потерями
Размер потока                            : 417 Мбайт (8%)
Язык                                     : Russian
Default                                  : Да
Forced                                   : Нет
Меню
00:00:00.000                             : en:Глава 1
00:04:33.000                             : en:Глава 2
00:10:45.000                             : en:Глава 3
00:18:03.000                             : en:Глава 4
00:22:27.000                             : en:Глава 5
00:27:01.000                             : en:Глава 6
00:32:39.000                             : en:Глава 7
00:39:20.000                             : en:Глава 8
00:45:28.000                             : en:Глава 9
00:51:28.000                             : en:Глава 10
00:55:35.000                             : en:Глава 11
01:01:19.000                             : en:Глава 12
01:06:59.000                             : en:Глава 13
01:15:13.000                             : en:Глава 14
01:20:38.000                             : en:Глава 15
01:25:15.000                             : en:Глава 16
01:33:46.000                             : en:Глава 17
01:37:34.000                             : en:Глава 18
01:42:21.000                             : en:Глава 19
01:47:36.000                             : en:Глава 20
01:50:58.000                             : en:Глава 21
01:55:29.000                             : en:Глава 22
02:01:33.000                             : en:Глава 23
02:09:22.000                             : en:Глава 24
02:14:02.000                             : en:Глава 25
02:19:15.000                             : en:Глава 26
02:23:30.000                             : en:Глава 27
Скриншоты:

[Цитировать]

Топик был перенесен из форума Новинки кинопроката в форум Драма
Henkok



Показать сообщения:    

Текущее время: 06-Дек 05:57

Часовой пояс: UTC + 3


Вы не можете начинать темы
Вы не можете отвечать на сообщения
Вы не можете редактировать свои сообщения
Вы не можете удалять свои сообщения
Вы не можете голосовать в опросах
Вы не можете прикреплять файлы к сообщениям
Вы не можете скачивать файлы

!ВНИМАНИЕ!
Сайт не предоставляет электронные версии произведений, а занимается лишь коллекционированием и каталогизацией ссылок, присылаемых и публикуемых на форуме нашими читателями. Если вы являетесь правообладателем какого-либо представленного материала и не желаете, чтобы ссылка на него находилась в нашем каталоге, свяжитесь с нами, и мы незамедлительно удалим ее. Файлы для обмена на трекере предоставлены пользователями сайта, и администрация не несет ответственности за их содержание. Просьба не заливать файлы, защищенные авторскими правами, а также файлы нелегального содержания!