[ Сегодня идет свободное скачивание без начисления Download ]


Статистика раздачи
Нет
 
   
 
Top  
 
 
-Евровидение-2015 Первый полуфинал / Eurovision-2015. 1-Semi-Final (2015) HDTVRip 1080i- Производство: 1 Канал
Жанр: Музыка
Актеры:
01 Эдуард Романюта – I Want Your Love (Молдавия)
02 Genealogy – Face The Shadow (Армения)
03 Loic Nottet – Rhythm Inside (Бельгия)
04 Trijntje Oosterhuis – Walk Along (Нидерланды)
05 Pertti Kurikan Nimipaivat – Aina mun pitaa (Финляндия)
06 Maria-Elena Kiriakou – One Last Breath (Греция)
07 Elina Born & Stig Rasta – Goodbye to Yesterday (Эстония)
08 Даниел Каймакоски – Esenski Lisja (Македония)
09 Bojana Stamenov – Ceo svet je moj (Сербия)
10 Boggie – Wars For Nothing (Венгрия)
11 Юзари и Маймуна – Time (Белоруссия)
12 Полина Гагарина – A Million Voices (Россия)
13 Anti Social Media – The Way You Are (Дания)
14 Elhaida Dani – Diell (Албания)
15 Voltaj – All Over Again (Румыния)
16 Нина Сублатти – Warrior (Грузия)
Описание:
19 мая в эфире Первого канала - 1-й полуфинал конкурса песни "Евровидение", в котором представляющая Россию Полина Гагарина исполнит песню A Million Voices. Позади неделя подготовки к этому вечеру - постановка технически сложного номера, многочасовые репетиции на роскошной арене Weiner Stadthalle и вне ее, две пресс-конференции и торжественная церемония открытия конкурса, прошедшая накануне у венской ратуши. Полину очень тепло принимают в Вене, к выступлению российской певицы приковано большое внимание в пресс-центре конкурса (на котором аккредитовано около 2 тысяч журналистов со всего мира). В фанатском рейтинге Полина (среди участников 1-го полуфинала) уверенно держит лидерство, высоко котируется российская заявка и у мировых букмекеров. Музыкальное видео на песню A Million Voices набрало больше всего просмотров на официальном канале Евровидения в YouTube. Евровидение, которое в этом году проводится в 60-й раз, традиционно считается самым рейтинговым не-спортивным телевизионным шоу в мире. В этом году в конкурсе принимают участие исполнители из 40 стран. В качестве специально приглашенного гостя в Вене выступит представитель Австралии. Россия выступает в 1-м полуфинале под 12-м порядковым номером. Также в этот вечер выступят представители Молдовы, Армении, Бельгии, Нидерландов, Финляндии, Греции, Эстонии, Македонии, Сербии, Венгрии, Беларуси, Дании, Албании, Румынии, а также Грузии.
Конкурс песни Евровидение 2015 — 60-й конкурс песни «Евровидение», который пройдёт в Австрии в 2015 году. Австрия стала страной-победительницей предыдущего конкурса «Евровидение 2014», прошедшего в Копенгагене (Дания), набрав 290 баллов с песней «Rise Like a Phoenix» в исполнении Кончиты Вурст, также были официально объявлены окончательные даты для обоих полуфиналов — 19 мая и 21 мая 2015 года. Финал конкурса состоится 23 мая 2015 года. Австрия будет принимать у себя конкурс уже во второй раз, стране понадобилось 48 лет для того, чтобы повторить успех 1966 года, где победителем стал Удо Юргенс. Конкурс будет вести австрийская национальная телекомпания ORF. От участия в конкурсе отказалась Украина. О возвращении на конкурс заявили Кипр, Сербия и Чехия. Также состоялся дебют Австралии, однако в последующих годах она участвовать не будет, только если не победит в конкурсе.
Продолжительность: 01:50:09
Качество видео: HDTVRip
Перевод: Дублированный
Видеокодек: MPEG-1
Битрейт видео: ~ 11.1 Mbps, 0.213 bit/pixel
Размер кадра: 1920x1080 (16:9) 25.000 fps
Аудиокодек-1: MPEG-1
Битрейт аудио: MPEG Audio 48000Hz stereo 224 Кбит/сек
Аудиокодек-2: AC3 5.1
Битрейт аудио: 6 channels, 48000Hz, 384 Кбит/сек

Mediainfo:

Общее
Идентификатор                            : 1 (0x1)
Полное имя                               : E:\торрент\Евровидение 2015. Первый полуфинал - Eurovision 2015.1-Semi-Final HDTV 1080i.ts
Формат                                   : MPEG-TS
Размер файла                             : 9,45 Гбайт
Продолжительность                        : 1 ч. 50 м.
Режим общего битрейта                    : Переменный
Общий поток                              : 12,3 Мбит/сек
Видео
Идентификатор                            : 1902 (0x76E)
Идентификатор меню                       : 92 (0x5C)
Формат                                   : AVC
Формат/Информация                        : Advanced Video Codec
Профиль формата                          : High@L4
Параметр CABAC формата                   : Да
Параметр ReFrames формата                : 3 кадра
Идентификатор кодека                     : 27
Продолжительность                        : 1 ч. 50 м.
Битрейт                                  : 11,1 Мбит/сек
Ширина                                   : 1920 пикселей
Высота                                   : 1080 пикселей
Соотношение сторон                       : 16:9
Частота кадров                           : 25,000 кадров/сек
Стандарт вещания                         : Component
Цветовое пространство                    : YUV
Субдискретизация насыщенности            : 4:2:0
Битовая глубина                          : 8 бит
Тип развёртки                            : Чересстрочная
Порядок развёртки                        : Верхнее поле первое
Бит/(Пиксели*Кадры)                      : 0.213
Размер потока                            : 8,51 Гбайт (90%)
Цветовой диапазон                        : Limited
Основные цвета                           : BT.709
Характеристики трансфера                 : BT.709
Коэффициенты матрицы                     : BT.709
Аудио #1
Идентификатор                            : 2902 (0xB56)
Идентификатор меню                       : 92 (0x5C)
Формат                                   : AC-3
Формат/Информация                        : Audio Coding 3
Расширение режима                        : CM (complete main)
Параметр Endianness формата              : Big
Идентификатор кодека                     : 6
Продолжительность                        : 1 ч. 50 м.
Вид битрейта                             : Постоянный
Битрейт                                  : 384 Кбит/сек
Каналы                                   : 6 каналов
Расположение каналов                     : Front: L C R, Side: L R, LFE
Частота                                  : 48,0 КГц
Битовая глубина                          : 16 бит
Метод сжатия                             : С потерями
Задержка видео                           : -120 мс.
Размер потока                            : 303 Мбайт (3%)
Язык                                     : Russian
Аудио #2
Идентификатор                            : 2903 (0xB57)
Идентификатор меню                       : 92 (0x5C)
Формат                                   : MPEG Audio
Версия формата                           : Version 1
Профиль формата                          : Layer 2
Идентификатор кодека                     : 3
Продолжительность                        : 1 ч. 50 м.
Вид битрейта                             : Постоянный
Битрейт                                  : 224 Кбит/сек
Каналы                                   : 2 канала
Частота                                  : 48,0 КГц
Метод сжатия                             : С потерями
Задержка видео                           : -120 мс.
Размер потока                            : 176 Мбайт (2%)
Язык                                     : Russian
Текст
Идентификатор                            : 2904 (0xB58)-888
Идентификатор меню                       : 92 (0x5C)
Формат                                   : Teletext Subtitle
Язык                                     : Russian
Меню
Идентификатор                            : 902 (0x386)
Идентификатор меню                       : 92 (0x5C)
Продолжительность                        : 1 ч. 50 м.
Список                                   : 1902 (0x76E) (AVC) / 2902 (0xB56) (AC-3, Russian) / 2903 (0xB57) (MPEG Audio, Russian) / 2904 (0xB58) ()
Язык                                     :  / Russian / Russian

Скриншоты

Скриншоты:

[Цитировать]



Показать сообщения:    

Текущее время: 29-Апр 05:51

Часовой пояс: UTC + 6


Вы не можете начинать темы
Вы не можете отвечать на сообщения
Вы не можете редактировать свои сообщения
Вы не можете удалять свои сообщения
Вы не можете голосовать в опросах
Вы не можете прикреплять файлы к сообщениям
Вы не можете скачивать файлы

!ВНИМАНИЕ!
Сайт не предоставляет электронные версии произведений, а занимается лишь коллекционированием и каталогизацией ссылок, присылаемых и публикуемых на форуме нашими читателями. Если вы являетесь правообладателем какого-либо представленного материала и не желаете, чтобы ссылка на него находилась в нашем каталоге, свяжитесь с нами, и мы незамедлительно удалим ее. Файлы для обмена на трекере предоставлены пользователями сайта, и администрация не несет ответственности за их содержание. Просьба не заливать файлы, защищенные авторскими правами, а также файлы нелегального содержания!