[ Сегодня идет свободное скачивание без начисления Download ]


Статистика раздачи
Скачал: [ 7 ]
 
   
 
Top  
 
 
-Петр Арсентьев | Java для начинающих. Путь от ученика до эксперта (2015) PCRec- Автор (режиссер): Петр Арсентьев
Жанр: Видеокурс
Продолжительность: 04:57:27
Качество видео: PCRec
Видеокодек: MPEG4 Video
Битрейт видео: ~446kbps
Размер кадра: 1280x720
Аудиокодек: AAC 2.0
Битрейт аудио: 44100Hz stereo 192kbps
Описание:
Данный видеокурс разработан и предназначен для тех кто начинает изучать «Java», но так же будет интересен и тем, кто уже владеет основными навыками программирования на языке «Java», который является на сегодняшний день самым актуальным языком программирования. Это практический курс, поэтому важную роль играет выполнение всех заданиий в каждом занятии. Только тогда будет положительный результат.
Когда человек начинает изучать Java, первое, с чем он сталкивается, — это огромное количество технологий, фрейворков и библиотек. Человек теряется, что же ему учить. Создается впечатление, что порог вхождения в Java программисты очень высок. Этим курсом Автор хочет показать обратное. Работа с курсом предельно проста и максимально приближена к занятиям с преподавателем. Преподавание основывается на рассмотрении конкретных примеров. Вы увидите весь процесс программирования на языке «Java» в различных режимах, сопровождаемый рассказом преподавателя, поясняющим свои действия. За время обучения, Вы овлаедете достаточными знаниями для устройтва на работу, прохождения собеседоавния и выполнения требуемых задач на работе. Только тогда будет положительный результат.

Доп. информация:

Содержание:
1. Введение
2. Инструменты разработки
3.1. Программирование на языке «Java» (часть 1)
3.2. Программирование на языке «Java» (часть 2)
4. Классы. Объекты, Циклы, Условия
5. Оформление кода
6. Наследование. Инкапсуляция. Полиморфизм
7. Инструменты сборки. Maven, IDEA, JUnit
8. Исключительные ситуации. Exception, Error
9. Создание исполняемого файла. Manifest
10. Коллекции. List, Set, Map, Tree
11. Коллекции. Методы Equals и hashCode
12. Многопоточность
13. Графический интерфейс (GUI). Игра «Сапёр»
14. Клиент-серверное приложение. Протоколы передачи
15. Шаблон проектирования MVC. Реализация через JSP, Servlets. JTLS
16. Тестирование Servlet. Mockito
17. Клиентские языки: HTML, CSS, JS

MI

Общее
Полное имя : D:\Торренты\Java. Путь от ученика до эксперта\1. Введение.mp4
Формат : MPEG-4
Профиль формата : Base Media / Version 2
Идентификатор кодека : mp42
Размер файла : 27,3 Мбайт
Продолжительность : 5 м. 55 с.
Режим общего битрейта : Переменный
Общий поток : 644 Кбит/сек
Программа кодирования : Lavf56.4.102
Видео
Идентификатор : 1
Формат : MPEG-4 Visual
Профиль формата : [email protected]
Параметр BVOP формата : Нет
Параметр QPel формата : Нет
Параметр GMC формата : Без точки перехода
Параметр матрицы формата : Default (H.263)
Идентификатор кодека : 20
Продолжительность : 5 м. 55 с.
Битрейт : 447 Кбит/сек
Ширина : 1280 пикселей
Высота : 720 пикселей
Соотношение сторон : 16:9
Цветовое пространство : YUV
Субдискретизация насыщенности : 4:2:0
Битовая глубина : 8 бит
Тип развёртки : Прогрессивная
Метод сжатия : С потерями
Размер потока : 18,9 Мбайт (69%)
Библиотека кодирования : Lavc56.1.101
Язык : English
Аудио
Идентификатор : 2
Формат : AAC
Формат/Информация : Advanced Audio Codec
Профиль формата : LC
Идентификатор кодека : 40
Продолжительность : 5 м. 55 с.
Продолжительность оригинала : 5 м. 55 с.
Вид битрейта : Переменный
Битрейт : 192 Кбит/сек
Каналы : 2 канала
Расположение каналов : Front: L R
Частота : 44,1 КГц
Метод сжатия : С потерями
Размер потока : 8,15 Мбайт (30%)
Размер потока оригинала : 8,15 Мбайт (30%)
Язык : English
mdhd_Duration : 355198
Скриншоты:

[Цитировать]



Показать сообщения:    

Текущее время: 04-Дек 11:16

Часовой пояс: UTC + 3


Вы не можете начинать темы
Вы не можете отвечать на сообщения
Вы не можете редактировать свои сообщения
Вы не можете удалять свои сообщения
Вы не можете голосовать в опросах
Вы не можете прикреплять файлы к сообщениям
Вы не можете скачивать файлы

!ВНИМАНИЕ!
Сайт не предоставляет электронные версии произведений, а занимается лишь коллекционированием и каталогизацией ссылок, присылаемых и публикуемых на форуме нашими читателями. Если вы являетесь правообладателем какого-либо представленного материала и не желаете, чтобы ссылка на него находилась в нашем каталоге, свяжитесь с нами, и мы незамедлительно удалим ее. Файлы для обмена на трекере предоставлены пользователями сайта, и администрация не несет ответственности за их содержание. Просьба не заливать файлы, защищенные авторскими правами, а также файлы нелегального содержания!