[ Сегодня идет свободное скачивание без начисления Download ]


Статистика раздачи
Нет
 
   
 
Top  
 
 
--
Сквозь горизонт / Event Horizon
-- Год выпуска: 1997
Страна: Великобритания, США
Производство: Golar Productions, Impact Pictures, Paramount Pictures
Жанр: Ужасы, фантастика, триллер, детектив
Режиссёр: Пол У. С. Андерсон
В ролях: Лоуренс Фишберн, Сэм Нилл, Ноа Хантли, Ричард Тимоти Джоунс, Холли Чэнт, Джоэли Ричардсон, Джейсон Айзэкс, Барклэй Райт, Питер Мэринкер, Роберт Йезек, Шон Пертви, Кэтлин Куинлэн, Джек Ноузуорти
Перевод: Профессиональный (двухголосый, закадровый) [Киномания], + Оригинал
Субтитры: Русские, английские
Описание: 2047 год. Спасательный космический корабль послан к границе Солнечной системы с целью выяснить, что произошло с экипажем первого звездолета, созданного для путешествий со сверхсветовой скоростью и бесследно исчезнувшего при первом же полете. Внезапно появившийся из ниоткуда, он был обнаружен возле далекой планеты Нептун.-- --Премьера (мир): 15 августа 1997
Релиз на DVD: 2 февраля 2010, «Юниверсал Пикчерс Рус»
-- --Качество: BDRip 720p
Продолжительность: 01:35:57
Формат: MKV
Видео кодек: H 264
Аудио кодек: AC3
Видео: 1280x548 (2.35:1), 23.976 fps, MPEG4 AVC, ~7500 kbps avg, 0.446 bit/pixel
Аудио #1: 48 kHz, AC3 Dolby Digital, 3/2 (L,C,R,l,r) + LFE ch, ~448.00 kbps (русский)
Аудио #2: 48 kHz, AC3 Dolby Digital, 3/2 (L,C,R,l,r) + LFE ch, ~640.00 kbps (английский)

MediaInfo

General
Unique ID : 247122195264528599642503194721605872360 (0xB9EA00EA8159AE978E237B02AB536AE8)
Complete name : H:\Фильмы HD\Skvoz.gorizont.(1997).BDRip.720p.[envy].mkv
Format : Matroska
Format version : Version 2
File size : 5.75 GiB
Duration : 1h 35mn
Overall bit rate : 8 578 Kbps
Movie name : Сквозь горизонт.(1997).BDRip.720p.[envy]
Encoded date : UTC 2014-05-08 04:41:04
Writing application : mkvmerge v5.8.0 ('No Sleep / Pillow') built on Sep 2 2012 15:37:04
Writing library : libebml v1.2.3 + libmatroska v1.3.0
Video
ID : 1
Format : AVC
Format/Info : Advanced Video Codec
Format profile : [email protected]
Format settings, CABAC : Yes
Format settings, ReFrames : 11 frames
Codec ID : V_MPEG4/ISO/AVC
Duration : 1h 35mn
Bit rate : 7 500 Kbps
Width : 1 280 pixels
Height : 548 pixels
Display aspect ratio : 2.35:1
Frame rate : 23.976 fps
Color space : YUV
Chroma subsampling : 4:2:0
Bit depth : 8 bits
Scan type : Progressive
Bits/(Pixel*Frame) : 0.446
Stream size : 4.91 GiB (85%)
Title : Сквозь горизонт.(1997).BDRip.720p.[envy]
Writing library : x264 core 142 r2409 d6b4e63
Encoding settings : cabac=1 / ref=11 / deblock=1:-1:-1 / analyse=0x3:0x133 / me=umh / subme=11 / psy=1 / psy_rd=1.00:0.00 / mixed_ref=1 / me_range=32 / chroma_me=1 / trellis=2 / 8x8dct=1 / cqm=0 / deadzone=21,11 / fast_pskip=0 / chroma_qp_offset=-2 / threads=12 / lookahead_threads=2 / sliced_threads=0 / nr=0 / decimate=1 / interlaced=0 / bluray_compat=0 / constrained_intra=0 / bframes=7 / b_pyramid=2 / b_adapt=2 / b_bias=0 / direct=3 / weightb=1 / open_gop=0 / weightp=2 / keyint=240 / keyint_min=23 / scenecut=40 / intra_refresh=0 / rc=2pass / mbtree=0 / bitrate=7500 / ratetol=2.0 / qcomp=0.60 / qpmin=0 / qpmax=69 / qpstep=4 / cplxblur=20.0 / qblur=0.5 / ip_ratio=1.40 / pb_ratio=1.30 / aq=2:1.00
Language : English
Default : Yes
Forced : No
Audio #1
ID : 2
Format : AC-3
Format/Info : Audio Coding 3
Mode extension : CM (complete main)
Codec ID : A_AC3
Duration : 1h 35mn
Bit rate mode : Constant
Bit rate : 448 Kbps
Channel(s) : 6 channels
Channel positions : Front: L C R, Side: L R, LFE
Sampling rate : 48.0 KHz
Bit depth : 16 bits
Compression mode : Lossy
Stream size : 307 MiB (5%)
Title : Kinomanija
Language : Russian
Default : Yes
Forced : No
Audio #2
ID : 3
Format : AC-3
Format/Info : Audio Coding 3
Mode extension : CM (complete main)
Codec ID : A_AC3
Duration : 1h 35mn
Bit rate mode : Constant
Bit rate : 640 Kbps
Channel(s) : 6 channels
Channel positions : Front: L C R, Side: L R, LFE
Sampling rate : 48.0 KHz
Bit depth : 16 bits
Compression mode : Lossy
Stream size : 439 MiB (7%)
Title : Eng
Language : English
Default : No
Forced : No
Text #1
ID : 4
Format : UTF-8
Codec ID : S_TEXT/UTF8
Codec ID/Info : UTF-8 Plain Text
Title : full
Language : Russian
Default : No
Forced : No
Text #2
ID : 5
Format : UTF-8
Codec ID : S_TEXT/UTF8
Codec ID/Info : UTF-8 Plain Text
Title : full
Language : English
Default : No
Forced : No
Menu
00:00:00.000 : :Chapter 01
00:05:41.007 : :Chapter 02
00:08:26.964 : :Chapter 03
00:12:11.981 : :Chapter 04
00:18:38.951 : :Chapter 05
00:23:19.731 : :Chapter 06
00:29:05.785 : :Chapter 07
00:34:01.080 : :Chapter 08
00:39:23.319 : :Chapter 09
00:45:08.622 : :Chapter 10
00:51:09.608 : :Chapter 11
00:58:17.702 : :Chapter 12
01:04:37.957 : :Chapter 13
01:09:29.957 : :Chapter 14
01:15:05.167 : :Chapter 15
01:22:20.560 : :Chapter 16
01:29:34.952 : :Chapter 17

Скриншоты

[Цитировать]



Показать сообщения:    

Текущее время: 04-Дек 09:05

Часовой пояс: UTC + 3


Вы не можете начинать темы
Вы не можете отвечать на сообщения
Вы не можете редактировать свои сообщения
Вы не можете удалять свои сообщения
Вы не можете голосовать в опросах
Вы не можете прикреплять файлы к сообщениям
Вы не можете скачивать файлы

!ВНИМАНИЕ!
Сайт не предоставляет электронные версии произведений, а занимается лишь коллекционированием и каталогизацией ссылок, присылаемых и публикуемых на форуме нашими читателями. Если вы являетесь правообладателем какого-либо представленного материала и не желаете, чтобы ссылка на него находилась в нашем каталоге, свяжитесь с нами, и мы незамедлительно удалим ее. Файлы для обмена на трекере предоставлены пользователями сайта, и администрация не несет ответственности за их содержание. Просьба не заливать файлы, защищенные авторскими правами, а также файлы нелегального содержания!