[ Сегодня идет свободное скачивание без начисления Download ]


Статистика раздачи
Нет
 
   
 
Top  
 
 
--
Оз: Великий и Ужасный / Oz: The Great and Powerful
-- Год выпуска: 2013
Страна: США
Производство: Roth Films, Walt Disney Pictures
Жанр: Фентези, приключения, комедия, семейный
Режиссёр: Сэм Рэйми
В ролях: Джеймс Франко, Мила Кунис,Рейчел Вайс, Мишель Уильямс, Зак Брафф, Билл Коббс, Джои Кинг, Тони Кокс, Стивен Р. Харт, Эбигейл Спенсер
Перевод: Профессиональный (полное дублирование) [лицензия], + Оригинал
Субтитры: Русские, английские
Описание: Когда ураган забрасывает циркового фокусника Оскара Диггса из пыльного Канзаса в волшебную страну Оз, склонный к мошенничеству циркач полагает, что он поймал удачу за хвост — ведь с помощью своих трюков он с легкостью может добыть в новых землях и славу и богатство. Однако его ждёт встреча с тремя чародейками, Теодорой, Эванорой и Глиндой, которые сомневаются в том, тот ли это великий волшебник, появления которого ждали легковерные жители страны Оз. Волей-неволей, пришелец оказывается втянутым в противостояние эпического масштаба, и ему приходится использовать весь свой «магический» арсенал, с добавлением толики настоящего волшебства. В ситуации выбора между Добром и Злом, Оскару Диггсу предстоит не только стать Великим и Ужасным Волшебником из Страны Оз, но и немного измениться к лучшему.-- --Премьера (мир): 14 февраля 2013
Премьера (РФ): 7 марта 2013, «WDSSPR»
Релиз на Blu-Ray: 6 августа 2013, «Уолт Дисней Компани СНГ»
Релиз на DVD: 6 августа 2013, «Уолт Дисней Компани СНГ»
--Качество: BDRip 1080p
Продолжительность: 02:10:30
Формат: MKV
Видео кодек: H 264
Аудио кодек: AC3
Видео: 1920x800 (2.40:1), 23.976 fps, MPEG4 AVC, ~7233 kbps avg, 0.196 bit/pixel
Аудио #1: 48 kHz, AC3 Dolby Digital, 3/2 (L,C,R,l,r) + LFE ch, ~640.00 kbps (русский)
Аудио #2: 48 kHz, AC3 Dolby Digital, 3/2 (L,C,R,l,r) + LFE ch, ~640.00 kbps (английский)

MediaInfo

Общее
Уникальный идентификатор : 247224401588852585665798001313130437034 (0xB9FDB013AE82CA48A52323ADE1D359AA)
Полное имя : Оз. Великий и Ужасный.2013.BDRip.1080p.Rus.Eng.mkv
Формат : Matroska
Версия формата : Version 2
Размер файла : 7,76 Гбайт
Продолжительность : 2 ч. 10 м.
Общий поток : 8515 Кбит/сек
Название фильма : Оз: Великий и Ужасный.2013
Дата кодирования : UTC 2013-07-17 13:39:43
Программа кодирования : mkvmerge v5.8.0 ('No Sleep / Pillow') built on Sep 2 2012 15:37:04
Библиотека кодирования : libebml v1.2.3 + libmatroska v1.3.0
Видео
Идентификатор : 1
Формат : AVC
Формат/Информация : Advanced Video Codec
Профиль формата : High@L4.1
Параметр CABAC формата : Да
Параметр ReFrames формата : 5 кадров
Идентификатор кодека : V_MPEG4/ISO/AVC
Продолжительность : 2 ч. 10 м.
Битрейт : 7233 Кбит/сек
Ширина : 1920 пикселей
Высота : 800 пикселей
Соотношение сторон : 2,40:1
Режим частоты кадров : Постоянный
Частота кадров : 23,976 кадра/сек
Цветовое пространство : YUV
Субдискретизация насыщенности : 4:2:0
Битовая глубина : 8 бит
Тип развёртки : Прогрессивная
Бит/(Пиксели*Кадры) : 0.196
Размер потока : 6,44 Гбайт (83%)
Заголовок : Rip by Boriy
Библиотека кодирования : x264 core 135 r2345 f0c1c53
Настройки программы : cabac=1 / ref=5 / deblock=1:-3:-3 / analyse=0x3:0x113 / me=umh / subme=11 / psy=1 / psy_rd=1.00:0.00 / mixed_ref=1 / me_range=32 / chroma_me=1 / trellis=2 / 8x8dct=1 / cqm=0 / deadzone=21,11 / fast_pskip=0 / chroma_qp_offset=-1 / threads=12 / lookahead_threads=1 / sliced_threads=0 / nr=0 / decimate=0 / interlaced=0 / bluray_compat=0 / constrained_intra=0 / bframes=6 / b_pyramid=2 / b_adapt=2 / b_bias=0 / direct=3 / weightb=1 / open_gop=0 / weightp=2 / keyint=240 / keyint_min=23 / scenecut=40 / intra_refresh=0 / rc=2pass / mbtree=0 / bitrate=7233 / ratetol=1.0 / qcomp=0.60 / qpmin=0 / qpmax=69 / qpstep=4 / cplxblur=20.0 / qblur=0.5 / ip_ratio=1.40 / pb_ratio=1.30 / aq=1:0.90
Язык : English
Default : Да
Forced : Нет
Аудио #1
Идентификатор : 2
Формат : AC-3
Формат/Информация : Audio Coding 3
Расширение режима : CM (complete main)
Параметр Endianness формата : Big
Идентификатор кодека : A_AC3
Продолжительность : 2 ч. 10 м.
Вид битрейта : Постоянный
Битрейт : 640 Кбит/сек
Каналы : 6 каналов
Расположение каналов : Front: L C R, Side: L R, LFE
Частота : 48,0 КГц
Битовая глубина : 16 бит
Метод сжатия : С потерями
Размер потока : 597 Мбайт (8%)
Заголовок : Дубляж
Язык : Russian
Default : Да
Forced : Нет
Аудио #2
Идентификатор : 3
Формат : AC-3
Формат/Информация : Audio Coding 3
Расширение режима : CM (complete main)
Параметр Endianness формата : Big
Идентификатор кодека : A_AC3
Продолжительность : 2 ч. 10 м.
Вид битрейта : Постоянный
Битрейт : 640 Кбит/сек
Каналы : 6 каналов
Расположение каналов : Front: L C R, Side: L R, LFE
Частота : 48,0 КГц
Битовая глубина : 16 бит
Метод сжатия : С потерями
Размер потока : 597 Мбайт (8%)
Заголовок : Оригинал
Язык : English
Default : Нет
Forced : Нет
Текст #1
Идентификатор : 4
Формат : UTF-8
Идентификатор кодека : S_TEXT/UTF8
Идентификатор кодека/Информация : UTF-8 Plain Text
Заголовок : Forced
Язык : Russian
Default : Да
Forced : Да
Текст #2
Идентификатор : 5
Формат : UTF-8
Идентификатор кодека : S_TEXT/UTF8
Идентификатор кодека/Информация : UTF-8 Plain Text
Заголовок : Full
Язык : Russian
Default : Нет
Forced : Нет
Текст #3
Идентификатор : 6
Формат : UTF-8
Идентификатор кодека : S_TEXT/UTF8
Идентификатор кодека/Информация : UTF-8 Plain Text
Заголовок : Full
Язык : English
Default : Нет
Forced : Нет
Меню
00:00:00.000 : :Chapter 1
00:02:37.699 : :Chapter 2
00:06:16.959 : :Chapter 3
00:09:57.555 : :Chapter 4
00:11:32.691 : :Chapter 5
00:15:20.753 : :Chapter 6
00:17:47.191 : :Chapter 7
00:20:29.478 : :Chapter 8
00:24:01.982 : :Chapter 9
00:24:49.779 : :Chapter 10
00:27:01.661 : :Chapter 11
00:29:37.358 : :Chapter 12
00:32:43.419 : :Chapter 13
00:34:30.193 : :Chapter 14
00:37:22.657 : :Chapter 15
00:38:57.376 : :Chapter 16
00:40:39.145 : :Chapter 17
00:42:09.944 : :Chapter 18
00:42:52.444 : :Chapter 19
00:45:33.480 : :Chapter 20
00:47:22.839 : :Chapter 21
00:48:32.409 : :Chapter 22
00:53:29.831 : :Chapter 23
00:55:22.652 : :Chapter 24
00:57:15.932 : :Chapter 25
00:59:10.838 : :Chapter 26
01:02:05.263 : :Chapter 27
01:05:33.220 : :Chapter 28
01:06:21.102 : :Chapter 29
01:09:55.774 : :Chapter 30
01:12:20.836 : :Chapter 31
01:15:37.783 : :Chapter 32
01:18:20.320 : :Chapter 33
01:19:47.782 : :Chapter 34
01:21:27.882 : :Chapter 35
01:26:16.170 : :Chapter 36
01:28:08.783 : :Chapter 37
01:30:33.219 : :Chapter 38
01:34:24.116 : :Chapter 39
01:36:57.436 : :Chapter 40
01:37:35.975 : :Chapter 41
01:41:30.876 : :Chapter 42
01:42:30.394 : :Chapter 43
01:45:51.762 : :Chapter 44
01:48:33.423 : :Chapter 45
01:51:23.802 : :Chapter 46
01:54:26.317 : :Chapter 47
01:55:54.072 : :Chapter 48
01:57:58.404 : :Chapter 49
01:59:34.417 : :Chapter 50
02:02:49.570 : :Chapter 51
02:04:32.756 : :Chapter 52
02:10:29.738 : :Chapter 53

Скриншоты

[Цитировать]



Показать сообщения:    

Текущее время: 11-Дек 14:57

Часовой пояс: UTC + 3


Вы не можете начинать темы
Вы не можете отвечать на сообщения
Вы не можете редактировать свои сообщения
Вы не можете удалять свои сообщения
Вы не можете голосовать в опросах
Вы не можете прикреплять файлы к сообщениям
Вы не можете скачивать файлы

!ВНИМАНИЕ!
Сайт не предоставляет электронные версии произведений, а занимается лишь коллекционированием и каталогизацией ссылок, присылаемых и публикуемых на форуме нашими читателями. Если вы являетесь правообладателем какого-либо представленного материала и не желаете, чтобы ссылка на него находилась в нашем каталоге, свяжитесь с нами, и мы незамедлительно удалим ее. Файлы для обмена на трекере предоставлены пользователями сайта, и администрация не несет ответственности за их содержание. Просьба не заливать файлы, защищенные авторскими правами, а также файлы нелегального содержания!