[ Сегодня идет свободное скачивание без начисления Download ]


Статистика раздачи
Нет
 
   
 
Top  
 
 
--
600 кг золота / Охотники за золотом / 600 kilos d'or pur / Goldhunter
-- Год выпуска: 2010
Страна: Франция
Производство: Aldabra films, Canal+ [fr], Cin? Cin?mas, Fonds Images de la Diversit?, Gaumont, Mandarin D?veloppement, Mandarin Films, Procirep, Soficapital, TF1 Films Production
Жанр: Драма, криминал, приключения
Режиссёр: Эрик Беснард
В ролях: Кловис Корнийяк, Одри Дана, Патрик Шенэ, Клаудио Сантамария, Бруно Соло, Эрик Эбони, Жерар Клейн, Мехди Неббу, Юбер Сен-Макари, Жан-Пьер Мартен
Перевод: Профессиональный (многоголосый, закадровый) [лицензия], + Оригинал
Субтитры: Русские, французские
Описание: Несколько отчаянных искателей приключений объединяется, чтобы купить золотодобывающую шахту в Гайане. Когда рискованная сделка срывается, героям приходится спешно скрываться на вертолете, который терпит крушение в непролазных джунглях. С собой у путешественников 600 килограммов золота. Вскоре эта ноша становится слишком тяжелой. И вот уже золотая лихорадка превращает бывших товарищей в смертельных врагов…-- --Премьера (мир): 5 августа 2010
Премьера (РФ): 10 марта 2011, «Каравелла DDC»
Релиз на Blu-Ray: 30 марта 2011, «Кармен Видео»
Релиз на DVD: 30 марта 2011, «Кармен Видео»
-- --Качество: BDRip 720p
Продолжительность: 01:39:24
Формат: MKV
Видео кодек: H 264
Аудио кодек: AC3 / DTS
Видео: 1280x544 (2.35:1), 24 fps, MPEG4 AVC, ~4779 kbps avg, 0.286 bit/pixel
Аудио #1: 48 kHz, AC3 Dolby Digital, 3/2 (L,C,R,l,r) + LFE ch, ~384.00 kbps (русский)
Аудио #2: 48 kHz, DTS, 3/2 (L,C,R,l,r) + LFE ch, 1510.00 kbps (французский)

MediaInfo

General
Unique ID : 226241391664326046530665657794836399286 (0xAA3481D06DB2AB24B03A73A1E6F984B6)
Complete name : H:\Фильмы HD\600 kilos d'or pur.2010.BDRip.720p.mkv
Format : Matroska
Format version : Version 2
File size : 4.63 GiB
Duration : 1h 39mn
Overall bit rate : 6 670 Kbps
Movie name : avproh
Encoded date : UTC 2011-03-29 19:58:04
Writing application : mkvmerge v4.6.0 ('Still Crazy After All These Years') сборка от Mar 10 2011 02:50:32
Writing library : libebml v1.2.0 + libmatroska v1.1.0
Video
ID : 1
Format : AVC
Format/Info : Advanced Video Codec
Format profile : High@L4.1
Format settings, CABAC : Yes
Format settings, ReFrames : 5 frames
Codec ID : V_MPEG4/ISO/AVC
Duration : 1h 39mn
Bit rate : 4 779 Kbps
Width : 1 280 pixels
Height : 544 pixels
Display aspect ratio : 2.35:1
Frame rate : 24.000 fps
Color space : YUV
Chroma subsampling : 4:2:0
Bit depth : 8 bits
Scan type : Progressive
Bits/(Pixel*Frame) : 0.286
Stream size : 3.22 GiB (70%)
Writing library : x264 core 112 r1834 a51816a
Encoding settings : cabac=1 / ref=5 / deblock=1:0:0 / analyse=0x3:0x133 / me=umh / subme=7 / psy=1 / psy_rd=1.00:0.00 / mixed_ref=1 / me_range=16 / chroma_me=1 / trellis=1 / 8x8dct=1 / cqm=0 / deadzone=21,11 / fast_pskip=1 / chroma_qp_offset=-2 / threads=3 / sliced_threads=0 / nr=0 / decimate=1 / interlaced=0 / constrained_intra=0 / bframes=3 / b_pyramid=2 / b_adapt=2 / b_bias=0 / direct=3 / weightb=1 / open_gop=0 / weightp=2 / keyint=250 / keyint_min=24 / scenecut=40 / intra_refresh=0 / rc=2pass / mbtree=0 / bitrate=4779 / ratetol=1.0 / qcomp=0.60 / qpmin=0 / qpmax=51 / qpstep=4 / cplxblur=20.0 / qblur=0.5 / ip_ratio=1.40 / pb_ratio=1.30 / aq=1:1.00
Language : French
Default : Yes
Forced : No
Audio #1
ID : 2
Format : AC-3
Format/Info : Audio Coding 3
Mode extension : CM (complete main)
Codec ID : A_AC3
Duration : 1h 39mn
Bit rate mode : Constant
Bit rate : 384 Kbps
Channel(s) : 6 channels
Channel positions : Front: L C R, Side: L R, LFE
Sampling rate : 48.0 KHz
Bit depth : 16 bits
Compression mode : Lossy
Stream size : 273 MiB (6%)
Language : Russian
Default : Yes
Forced : No
Audio #2
ID : 3
Format : DTS
Format/Info : Digital Theater Systems
Codec ID : A_DTS
Duration : 1h 39mn
Bit rate mode : Constant
Bit rate : 1 510 Kbps
Channel(s) : 6 channels
Channel positions : Front: L C R, Side: L R, LFE
Sampling rate : 48.0 KHz
Bit depth : 24 bits
Compression mode : Lossy
Stream size : 1.05 GiB (23%)
Language : French
Default : No
Forced : No
Text #1
ID : 4
Format : UTF-8
Codec ID : S_TEXT/UTF8
Codec ID/Info : UTF-8 Plain Text
Language : Russian
Default : No
Forced : No
Text #2
ID : 5
Format : UTF-8
Codec ID : S_TEXT/UTF8
Codec ID/Info : UTF-8 Plain Text
Language : French
Default : No
Forced : No

[Цитировать]



Показать сообщения:    

Текущее время: 11-Дек 05:21

Часовой пояс: UTC + 3


Вы не можете начинать темы
Вы не можете отвечать на сообщения
Вы не можете редактировать свои сообщения
Вы не можете удалять свои сообщения
Вы не можете голосовать в опросах
Вы не можете прикреплять файлы к сообщениям
Вы не можете скачивать файлы

!ВНИМАНИЕ!
Сайт не предоставляет электронные версии произведений, а занимается лишь коллекционированием и каталогизацией ссылок, присылаемых и публикуемых на форуме нашими читателями. Если вы являетесь правообладателем какого-либо представленного материала и не желаете, чтобы ссылка на него находилась в нашем каталоге, свяжитесь с нами, и мы незамедлительно удалим ее. Файлы для обмена на трекере предоставлены пользователями сайта, и администрация не несет ответственности за их содержание. Просьба не заливать файлы, защищенные авторскими правами, а также файлы нелегального содержания!