[ Сегодня идет свободное скачивание без начисления Download ]


Статистика раздачи
Нет
 
   
 
Top  
 
 
Информация о фильме
Название: Сделай шаг: Лови момент
Оригинальное название: Make Your Move
Год выпуска: 2013
Жанр: Мелодрама
Режиссер: Дуан Адлер
В ролях: БоА, Дерек Хаф, Уилл Юн Ли, Уэсли Джонатан, Изабелла Мико, Майкл Мэндо, Рик Гонзалез, Дэн Лория, Эллисон Холкер, Джефферсон Браун, Мики Исикава, Мэри Эштон, Сатори Ксай Лоренцо, Рич Тинг, Лори Энн Олтер, Уоррен Белль, Шон Байфилд, Джонни Кейнс, Томми Чанг, Эндрю Черч, Ральф деГрут, Юн Хо Чон--О фильме:
История о двух танцорах, которые выросли в разных условиях. Но по воле судьбе оба они окажутся в Нью-Йорке и будут работать друг с другом в подземном клубе. Между ними будет соперничество, но потом история превращается в историю «Ромео и Джульетта» когда двое влюбляются.-- Семпл--Страна: США, Корея Южная
Студия: CJ Entertainment, Robert Cort Productions
Продолжительность: 01:49:57
Перевод: Дублированный [Чистый звук]--Файл
Кодек: XviD
Качество: HDRip
Видео: 1701 Кбит/с, 720x384
Звук: AC3, 2 ch, 192 Кбит/с--

Инфо-файл

Общее
Полное имя : D:\Sdelaj.shag.2013.P.HDRip.avi
Формат : AVI
Формат/Информация : Audio Video Interleave
Размер файла : 1,46 Гбайт
Продолжительность : 1 ч. 49 м.
Общий поток : 1902 Кбит/сек
Программа кодирования : VirtualDubMod 1.5.10.2 (build 2540/release)
Библиотека кодирования : VirtualDubMod build 2540/release
Видео
Идентификатор : 0
Формат : MPEG-4 Visual
Профиль формата : Advanced Simple@L5
Параметр BVOP формата : 2
Параметр QPel формата : Нет
Параметр GMC формата : Без точки перехода
Параметр матрицы формата : Выборочная
Идентификатор кодека : XVID
Идентификатор кодека/Подсказка : XviD
Продолжительность : 1 ч. 49 м.
Битрейт : 1701 Кбит/сек
Ширина : 720 пикселей
Высота : 384 пикселя
Соотношение сторон : 1,85:1
Частота кадров : 23,976 кадра/сек
Цветовое пространство : YUV
Субдискретизация насыщенности : 4:2:0
Битовая глубина : 8 бит
Тип развёртки : Прогрессивная
Метод сжатия : С потерями
Бит/(Пиксели*Кадры) : 0.257
Размер потока : 1,31 Гбайт (89%)
Библиотека кодирования : XviD 73
Аудио
Идентификатор : 1
Формат : AC-3
Формат/Информация : Audio Coding 3
Расширение режима : CM (complete main)
Параметр Endianness формата : Big
Идентификатор кодека : 2000
Продолжительность : 1 ч. 49 м.
Вид битрейта : Постоянный
Битрейт : 192 Кбит/сек
Каналы : 2 канала
Расположение каналов : Front: L R
Частота : 48,0 КГц
Битовая глубина : 16 бит
Метод сжатия : С потерями
Размер потока : 151 Мбайт (10%)
Выравнивание : Разделение по промежуткам
Продолжительность промежутка : 42 мс. (1,00 видеокадр)
Время предзагрузки промежутка : 500 мс.

Скриншоты


[Цитировать]



Показать сообщения:    

Текущее время: 07-Дек 13:36

Часовой пояс: UTC + 3


Вы не можете начинать темы
Вы не можете отвечать на сообщения
Вы не можете редактировать свои сообщения
Вы не можете удалять свои сообщения
Вы не можете голосовать в опросах
Вы не можете прикреплять файлы к сообщениям
Вы не можете скачивать файлы

!ВНИМАНИЕ!
Сайт не предоставляет электронные версии произведений, а занимается лишь коллекционированием и каталогизацией ссылок, присылаемых и публикуемых на форуме нашими читателями. Если вы являетесь правообладателем какого-либо представленного материала и не желаете, чтобы ссылка на него находилась в нашем каталоге, свяжитесь с нами, и мы незамедлительно удалим ее. Файлы для обмена на трекере предоставлены пользователями сайта, и администрация не несет ответственности за их содержание. Просьба не заливать файлы, защищенные авторскими правами, а также файлы нелегального содержания!