[ Сегодня идет свободное скачивание без начисления Download ]


Статистика раздачи
Нет
 
   
 
Top  
 
 
Я – Четвертый / I Am Number Four
Год выпуска: 2011
Страна: США
Жанр: Фантастика, триллер, драма, мелодрама
Режиссёр: Ди Джей Карузо
В ролях: Алекс Петтифер, Тимоти Олифант, Тереза Палмер, Дианна Агрон, Каллэн МакОлифф, Кевин Дюран, Джэйк Абель, Джефф Хочендонер, Патрик Сибис, Грег Таунли
Перевод: Профессиональный (полное дублирование) + Оригинал
Субтитры: Русские, английские
Описание: Обычный с виду подросток Джон Смит на самом деле — один из последних выживших обитателей далекой планеты. Джон вынужден скрываться от страшных врагов, посланных уничтожить его. Ему приходится менять имена, постоянно переезжая с места на место со своим опекуном Генри. В разных городках и в разных школах Джон всегда был новичком без прошлого, но однажды он нашел место, которое смог назвать домом: в маленьком городке в Огайо Джон встретил свою любовь. Теперь ему предстоит открыть в себе уникальные способности, сразиться с древними и страшными врагами своего народа и осознать свое удивительное предназначение.


Качество: BDRip 720p
Продолжительность: 01:49:34 час.
Формат: MKV
Видео кодек: H 264
Аудио кодек: AС3
Видео: 1280x690 (1.85:1), 59.880 fps, MPEG4 AVC, ~ 6892 kbps avg, 0.130 bit/pixel
Аудио: 48 kHz, AC3 Dolby Digital, 3/2 (L,C,R,l,r) + LFE ch, 640 kbps avg (Русский)
Аудио: 48 kHz, AC3 Dolby Digital, 3/2 (L,C,R,l,r) + LFE ch, 640 kbps avg (Английский)

Скриншоты

MediaInfo

Format : Matroska
Format version : Version 2
File size : 6.38 GiB
Duration : 1h 49mn
Overall bit rate : 8 338 Kbps
Movie name : Я-Четвертый.(2011).BDRip.720p.[envy].[60fps]
Encoded date : UTC 2015-05-25 19:15:58
Writing application : mkvmerge v5.8.0 ('No Sleep / Pillow') built on Sep 2 2012 15:37:04
Writing library : libebml v1.2.3 + libmatroska v1.3.0
Video
ID : 1
Format : AVC
Format/Info : Advanced Video Codec
Format profile : High@L4.1
Format settings, CABAC : Yes
Format settings, ReFrames : 9 frames
Codec ID : V_MPEG4/ISO/AVC
Duration : 1h 49mn
Bit rate : 6 892 Kbps
Width : 1 280 pixels
Height : 690 pixels
Display aspect ratio : 1.85:1
Frame rate mode : Constant
Frame rate : 59.880 fps
Original frame rate : 59.940 fps
Color space : YUV
Chroma subsampling : 4:2:0
Bit depth : 8 bits
Scan type : Progressive
Bits/(Pixel*Frame) : 0.130
Stream size : 5.28 GiB (83%)
Title : Я-Четвертый.(2011).BDRip.720p.[envy].[60fps]
Writing library : x264 core 130 r2273 b3065e6
Encoding settings : cabac=1 / ref=9 / deblock=1:0:0 / analyse=0x3:0x113 / me=umh / subme=10 / psy=1 / psy_rd=1.00:0.00 / mixed_ref=1 / me_range=24 / chroma_me=1 / trellis=2 / 8x8dct=1 / cqm=0 / deadzone=21,11 / fast_pskip=0 / chroma_qp_offset=-2 / threads=12 / lookahead_threads=1 / sliced_threads=0 / nr=0 / decimate=1 / interlaced=0 / bluray_compat=0 / constrained_intra=0 / bframes=5 / b_pyramid=2 / b_adapt=2 / b_bias=0 / direct=3 / weightb=1 / open_gop=0 / weightp=2 / keyint=250 / keyint_min=25 / scenecut=40 / intra_refresh=0 / rc=crf / mbtree=0 / crf=18.0 / qcomp=0.60 / qpmin=0 / qpmax=69 / qpstep=4 / ip_ratio=1.40 / pb_ratio=1.30 / aq=2:1.00
Language : English
Default : Yes
Forced : No
Audio #1
ID : 2
Format : AC-3
Format/Info : Audio Coding 3
Mode extension : CM (complete main)
Format settings, Endianness : Big
Codec ID : A_AC3
Duration : 1h 49mn
Bit rate mode : Constant
Bit rate : 640 Kbps
Channel(s) : 6 channels
Channel positions : Front: L C R, Side: L R, LFE
Sampling rate : 48.0 KHz
Bit depth : 16 bits
Compression mode : Lossy
Stream size : 502 MiB (8%)
Title : Dub
Language : Russian
Default : Yes
Forced : No
Audio #2
ID : 3
Format : AC-3
Format/Info : Audio Coding 3
Mode extension : CM (complete main)
Format settings, Endianness : Big
Codec ID : A_AC3
Duration : 1h 49mn
Bit rate mode : Constant
Bit rate : 640 Kbps
Channel(s) : 6 channels
Channel positions : Front: L C R, Side: L R, LFE
Sampling rate : 48.0 KHz
Bit depth : 16 bits
Compression mode : Lossy
Stream size : 502 MiB (8%)
Title : Eng
Language : English
Default : No
Forced : No
Text #1
ID : 4
Format : UTF-8
Codec ID : S_TEXT/UTF8
Codec ID/Info : UTF-8 Plain Text
Title : Rus forced
Language : Russian
Default : Yes
Forced : Yes
Text #2
ID : 5
Format : UTF-8
Codec ID : S_TEXT/UTF8
Codec ID/Info : UTF-8 Plain Text
Title : Rus full
Language : Russian
Default : No
Forced : No
Text #3
ID : 6
Format : UTF-8
Codec ID : S_TEXT/UTF8
Codec ID/Info : UTF-8 Plain Text
Title : Eng full
Language : English
Default : No
Forced : No
Menu
00:00:00.000 : :Number Three
00:04:09.249 : :The Vision
00:11:33.192 : :Welcome to Paradise
00:18:00.454 : :Back to School
00:25:41.373 : :Legacy Revealed
00:30:58.106 : :Getting to Know Sarah
00:39:29.533 : :Malcolm Spellman
00:45:30.310 : :Haunted Hayride
00:54:51.663 : :Your Dad Was Right
01:03:43.402 : :Finding Henri
01:14:23.208 : :Who Are You?
01:21:59.789 : :Darkroom
01:27:39.337 : :Working Together
01:32:27.625 : :Rising From the Ashes
01:37:03.567 : :We Know Where to Go
01:41:56.151 : :End Credits

[Цитировать]



Показать сообщения:    

Текущее время: 11-Дек 03:18

Часовой пояс: UTC + 3


Вы не можете начинать темы
Вы не можете отвечать на сообщения
Вы не можете редактировать свои сообщения
Вы не можете удалять свои сообщения
Вы не можете голосовать в опросах
Вы не можете прикреплять файлы к сообщениям
Вы не можете скачивать файлы

!ВНИМАНИЕ!
Сайт не предоставляет электронные версии произведений, а занимается лишь коллекционированием и каталогизацией ссылок, присылаемых и публикуемых на форуме нашими читателями. Если вы являетесь правообладателем какого-либо представленного материала и не желаете, чтобы ссылка на него находилась в нашем каталоге, свяжитесь с нами, и мы незамедлительно удалим ее. Файлы для обмена на трекере предоставлены пользователями сайта, и администрация не несет ответственности за их содержание. Просьба не заливать файлы, защищенные авторскими правами, а также файлы нелегального содержания!