[ Сегодня идет свободное скачивание без начисления Download ]


Статистика раздачи
Нет
 
   
 
Top  
 
 
Вердикт за деньги / Runaway Jury
Год выпуска: 2003
Страна: США
Жанр: Триллер, драма
Режиссёр: Гари Фледер
В ролях: Джон Кьюсак, Джин Хэкмен, Дастин Хоффман, Рэйчел Вайз, Брюс Дэвисон, Брюс МакГилл, Джереми Пивен, Ник Сирси, Стенли Андерсон, Клифф Кёртис, Нестор Серрано, Лиленд Орсер, Дженнифер Билз, Джерри Бэммен, Джоэнна Гоуинг, Билл Нанн, Хуанита Дженнингс, Маргерит Моро, Нора Данн, Гай Торри, Расти Швиммер, Марго Мурер, Дэвид Двайер, Майкл Арата, Рода Гриффис
Перевод: Профессиональный (дублированный) + Оригинал
Субтитры: Русские, английские
Описание: Один из присяжных во время процесса над производителем оружия объединяет усилия с прелестной девушкой, чтобы получить контроль над всеми присяжными. Ставки очень высоки, т. к. процесс «тянет» на несколько миллионов долларов, поэтому адвокат сталкивается с противодействием присяжного, который не остановится ни перед чем, чтобы решение присяжных осталось в силе…


Качество: BDRip 720p
Продолжительность: 02:07:33 час.
Формат: MKV
Видео кодек: H 264
Аудио кодек: AС3
Видео: 1280x544 (2.35:1), 23.976 fps, MPEG4 AVC, ~ 4037 kbps avg, 0.249 bit/pixel
Аудио1: 48 kHz, AC3 Dolby Digital, 3/2 (L,C,R,l,r) + LFE ch, 384 kbps avg (Русский)
Аудио2: 48 kHz, AC3 Dolby Digital, 3/2 (L,C,R,l,r) + LFE ch, 384 kbps avg (Английский)

Скриншоты

MediaInfo

General
Complete name : Verdikt.Za.Dengi.2003.DUAL.BDRip.h264.720p.AC3.-HQ-ViDEO.mkv
Format : Matroska
File size : 4.37 GiB
Duration : 2h 7mn
Overall bit rate : 4 903 Kbps
Movie name : Runaway Jury (2003)
Encoded date : UTC 2010-06-19 14:40:23
Writing application : mkvmerge v3.3.0 ('Language') built on Mar 24 2010 14:59:24
Writing library : libebml v0.8.0 + libmatroska v0.9.0
Video
ID : 1
Format : AVC
Format/Info : Advanced Video Codec
Format profile : High@L4.1
Format settings, CABAC : Yes
Format settings, ReFrames : 6 frames
Muxing mode : Container profile=Unknown@4.1
Codec ID : V_MPEG4/ISO/AVC
Duration : 2h 7mn
Bit rate : 4 037 Kbps
Width : 1 280 pixels
Height : 544 pixels
Display aspect ratio : 2.35:1
Frame rate : 23.976 fps
Resolution : 8 bits
Colorimetry : 4:2:0
Scan type : Progressive
Bits/(Pixel*Frame) : 0.242
Stream size : 3.59 GiB (82%)
Title : Encoded by GYN
Audio #1
ID : 2
Format : AC-3
Format/Info : Audio Coding 3
Codec ID : A_AC3
Duration : 2h 7mn
Bit rate mode : Constant
Bit rate : 384 Kbps
Channel(s) : 6 channels
Channel positions : Front: L C R, Surround: L R, LFE
Sampling rate : 48.0 KHz
Stream size : 350 MiB (8%)
Title : DUB
Language : Russian
Audio #2
ID : 3
Format : AC-3
Format/Info : Audio Coding 3
Codec ID : A_AC3
Duration : 2h 7mn
Bit rate mode : Constant
Bit rate : 384 Kbps
Channel(s) : 6 channels
Channel positions : Front: L C R, Surround: L R, LFE
Sampling rate : 48.0 KHz
Stream size : 350 MiB (8%)
Title : Original
Language : English
Text #1
ID : 4
Format : UTF-8
Codec ID : S_TEXT/UTF8
Codec ID/Info : UTF-8 Plain Text
Language : Russian
Text #2
ID : 5
Format : UTF-8
Codec ID : S_TEXT/UTF8
Codec ID/Info : UTF-8 Plain Text
Language : English

[Цитировать]



Показать сообщения:    

Текущее время: 22-Фев 11:25

Часовой пояс: UTC + 3


Вы не можете начинать темы
Вы не можете отвечать на сообщения
Вы не можете редактировать свои сообщения
Вы не можете удалять свои сообщения
Вы не можете голосовать в опросах
Вы не можете прикреплять файлы к сообщениям
Вы не можете скачивать файлы

!ВНИМАНИЕ!
Сайт не предоставляет электронные версии произведений, а занимается лишь коллекционированием и каталогизацией ссылок, присылаемых и публикуемых на форуме нашими читателями. Если вы являетесь правообладателем какого-либо представленного материала и не желаете, чтобы ссылка на него находилась в нашем каталоге, свяжитесь с нами, и мы незамедлительно удалим ее. Файлы для обмена на трекере предоставлены пользователями сайта, и администрация не несет ответственности за их содержание. Просьба не заливать файлы, защищенные авторскими правами, а также файлы нелегального содержания!