[ Сегодня идет свободное скачивание без начисления Download ]


Статистика раздачи
Нет
 
   
 
Top  
 
 
--
Лучший стрелок / Top Gun
-- Год выпуска: 1986
Страна: США
Производство: Paramount Pictures
Жанр: Боевик, драма, мелодрама
Режиссёр: Тони Скотт
В ролях: Том Круз, Келли МакГиллис, Вэл Килмер, Энтони Эдвардс, Том Скеррит, Майкл Айронсайд, Джон Стокуэлл, Бэрри Табб, Рик Россович, Тим Роббинс
Перевод: Профессиональный (многоголосый, закадровый) [Супербит], + Авторский (одноголосый, закадровый) [А.Гаврилов], + Украинский, + Оригинал
Субтитры: Русские
Описание: Искусный пилот истребителя Ф-14, курсант элитного училища ВМС США, летающий как бог и руководимый как в жизни, так и в небе инстинктами, а не разумом, влюбляется в инструктора училища, астрофизика, которая долгое время отказывает ему во взаимности. Уступит ли она его белозубой улыбке?-- --Премьера (мир): 12 мая 1986
Релиз на DVD: 22 декабря 2009, «Юниверсал Пикчерс Рус»
--Качество: BDRip 1080p
Продолжительность: 01:51:04
Формат: MKV
Видео кодек: H 264
Аудио кодек: AC3
Видео: 1920x800 (2.40:1), 23.976 fps, MPEG4 AVC, ~8326 kbps avg, 0.226 bit/pixel
Аудио #1: 48 kHz, AC3 Dolby Digital, 3/2 (L,C,R,l,r) + LFE ch, ~640.00 kbps (многоголосый-Супербит)
Аудио #2: 48 kHz, AC3 Dolby Digital, 3/2 (L,C,R,l,r) + LFE ch, ~640.00 kbps (английский)
Аудио #3: 48 kHz, AC3 Dolby Digital, 2/0 (L,R) ch, ~192.00 kbps (украинский)
Аудио #4: 48 kHz, AC3 Dolby Digital, 3/2 (L,C,R,l,r) + LFE ch, ~448.00 kbps (авторский-Гаврилов)-

Это интересно

Лауреат премии «Оскар» (1987) в категории «Лучшая песня».
На первой вечеринке в академии присутствует реальный пилот Змей (Гадюка). Он был одним из консультантов фильма.
Выражение «собачья драка» (dogfight) — термин, возникший еще во времена этажерок. Означает — воздушный бой.

MediaInfo

Format : Matroska
Format version : Version 2
File size : 7.95 GiB
Duration : 1h 51mn
Overall bit rate : 10.2 Mbps
Movie name : Топ Ган (Лучший стрелок).(1986).BDRip.1080p.[denis100]
Encoded date : UTC 2013-11-04 08:19:25
Writing application : mkvmerge v5.8.0 ('No Sleep / Pillow') built on Sep 2 2012 15:37:04
Writing library : libebml v1.2.3 + libmatroska v1.3.0
Video
ID : 1
Format : AVC
Format/Info : Advanced Video Codec
Format profile : High@L4.1
Format settings, CABAC : Yes
Format settings, ReFrames : 5 frames
Codec ID : V_MPEG4/ISO/AVC
Duration : 1h 51mn
Bit rate : 8 326 Kbps
Width : 1 920 pixels
Height : 800 pixels
Display aspect ratio : 2.40:1
Frame rate mode : Constant
Frame rate : 23.976 fps
Color space : YUV
Chroma subsampling : 4:2:0
Bit depth : 8 bits
Scan type : Progressive
Bits/(Pixel*Frame) : 0.226
Stream size : 6.30 GiB (79%)
Title : Топ Ган (Лучший стрелок).(1986).BDRip.1080p.[denis100]
Writing library : x264 core 140 r2377 1ca7bb9
Encoding settings : cabac=1 / ref=5 / deblock=1:-3:-3 / analyse=0x3:0x133 / me=umh / subme=11 / psy=1 / psy_rd=1.00:0.10 / mixed_ref=1 / me_range=64 / chroma_me=1 / trellis=2 / 8x8dct=1 / cqm=0 / deadzone=21,11 / fast_pskip=0 / chroma_qp_offset=-3 / threads=6 / lookahead_threads=1 / sliced_threads=0 / nr=0 / decimate=0 / interlaced=0 / bluray_compat=0 / constrained_intra=0 / bframes=8 / b_pyramid=2 / b_adapt=2 / b_bias=0 / direct=3 / weightb=1 / open_gop=0 / weightp=2 / keyint=240 / keyint_min=23 / scenecut=40 / intra_refresh=0 / rc=2pass / mbtree=0 / bitrate=8326 / ratetol=1.0 / qcomp=0.60 / qpmin=0 / qpmax=69 / qpstep=4 / cplxblur=20.0 / qblur=0.5 / ip_ratio=1.40 / pb_ratio=1.30 / aq=1:0.80
Language : English
Default : Yes
Forced : No
Audio #1
ID : 2
Format : AC-3
Format/Info : Audio Coding 3
Mode extension : CM (complete main)
Format settings, Endianness : Big
Codec ID : A_AC3
Duration : 1h 51mn
Bit rate mode : Constant
Bit rate : 640 Kbps
Channel count : 6 channels
Channel positions : Front: L C R, Side: L R, LFE
Sampling rate : 48.0 KHz
Bit depth : 16 bits
Compression mode : Lossy
Stream size : 508 MiB (6%)
Title : Профессиональный многоголосый - "Супербит"
Language : Russian
Default : Yes
Forced : No
Audio #2
ID : 3
Format : AC-3
Format/Info : Audio Coding 3
Mode extension : CM (complete main)
Format settings, Endianness : Big
Codec ID : A_AC3
Duration : 1h 51mn
Bit rate mode : Constant
Bit rate : 640 Kbps
Channel count : 6 channels
Channel positions : Front: L C R, Side: L R, LFE
Sampling rate : 48.0 KHz
Bit depth : 16 bits
Compression mode : Lossy
Stream size : 508 MiB (6%)
Title : English
Language : English
Default : No
Forced : No
Audio #3
ID : 4
Format : AC-3
Format/Info : Audio Coding 3
Mode extension : CM (complete main)
Format settings, Endianness : Big
Codec ID : A_AC3
Duration : 1h 51mn
Bit rate mode : Constant
Bit rate : 192 Kbps
Channel count : 2 channels
Channel positions : Front: L R
Sampling rate : 48.0 KHz
Bit depth : 16 bits
Compression mode : Lossy
Stream size : 153 MiB (2%)
Title : Ukrainian MVO - "1+1"
Language : Ukrainian
Default : No
Forced : No
Audio #4
ID : 5
Format : AC-3
Format/Info : Audio Coding 3
Mode extension : CM (complete main)
Format settings, Endianness : Big
Codec ID : A_AC3
Duration : 1h 51mn
Bit rate mode : Constant
Bit rate : 448 Kbps
Channel count : 6 channels
Channel positions : Front: L C R, Side: L R, LFE
Sampling rate : 48.0 KHz
Bit depth : 16 bits
Compression mode : Lossy
Stream size : 356 MiB (4%)
Title : авторский А.Гаврилов
Language : Russian
Default : No
Forced : No
Text
ID : 6
Format : UTF-8
Codec ID : S_TEXT/UTF8
Codec ID/Info : UTF-8 Plain Text
Title : Русские
Language : Russian
Default : No
Forced : No

Скриншоты

-

[Цитировать]



Показать сообщения:    

Текущее время: 08-Дек 19:10

Часовой пояс: UTC + 3


Вы не можете начинать темы
Вы не можете отвечать на сообщения
Вы не можете редактировать свои сообщения
Вы не можете удалять свои сообщения
Вы не можете голосовать в опросах
Вы не можете прикреплять файлы к сообщениям
Вы не можете скачивать файлы

!ВНИМАНИЕ!
Сайт не предоставляет электронные версии произведений, а занимается лишь коллекционированием и каталогизацией ссылок, присылаемых и публикуемых на форуме нашими читателями. Если вы являетесь правообладателем какого-либо представленного материала и не желаете, чтобы ссылка на него находилась в нашем каталоге, свяжитесь с нами, и мы незамедлительно удалим ее. Файлы для обмена на трекере предоставлены пользователями сайта, и администрация не несет ответственности за их содержание. Просьба не заливать файлы, защищенные авторскими правами, а также файлы нелегального содержания!