[ Сегодня идет свободное скачивание без начисления Download ]


Статистика раздачи
Скачал: [ 1 ]
 
   
 
Top  
 
 
-Приключения Мортадело и Филимона 3 / Mortadelo y Filem?n contra Jimmy el Cachondo (2014) BDRip [1080p]- Производство: Испания
Жанр: Комедия, Приключения
Режиссер: Хавьер Фессер
Персонажи: Карра Элехальде, Джанфри Топера, Гэбриель Шаме, Рамон Ланга, Хосе Алиас, Мариано Венансио, Энрике Вильен, Эмилио Гавира, Берта Охеа
Описание:
Криминальный талант Джимми беспрестанно творит зло, и никто не может с ним справится. Неужели не найдётся героев, которые бросят ему вызов? Жители городка дрожат от ужаса. Настало время наших Мортадело и Филемона. Вот уж эти бравые мачо найдут управу на злодея.

Продолжительность: 01:32:10
Качество видео: BDRip
Перевод: Одноголосый закадровый, любительский
Вид субтитров: Отсутствуют
Видеокодек: AVC/H.264
Битрейт видео: ~4960 Кбит/с
Размер кадра: 1920x1036
Аудио 1 : MP3, 256 Кбит/сек, Русский (2 ch)
Аудио 2 : AC3, 448 Кбит/сек, Испанский (6 ch)
Сэмпл: Скачать

Mediainfo:

Общее
Уникальный идентификатор                 : 198497571003612398473831360025312672919 (0x95553DD8BCC03548ABC8282C8DBCBC97)
Полное имя                               : D:\FILMЬl\Prikluchenia. Mortadel.i.Filimon.3.1080p.mkv
Формат                                   : Matroska
Версия формата                           : Version 4 / Version 2
Размер файла                             : 3,61 Гбайт
Продолжительность                        : 1 ч. 32 м.
Общий поток                              : 5602 Кбит/сек
Название фильма                          : Mortadelo y Filem?n contra Jimmy el Cachondo 2014
Дата кодирования                         : UTC 2015-05-26 20:32:01
Программа кодирования                    : mkvmerge v7.8.0 ("River Man") 32bit built on Mar 27 2015 16:18:02
Библиотека кодирования                   : libebml v1.3.1 + libmatroska v1.4.2
_STATISTICS_WRITING_APP                  : mkvmerge v7.8.0 ("River Man") 32bit built on Mar 27 2015 16:18:02
_STATISTICS_WRITING_DATE_UTC             : 2015-05-26 20:32:01
_STATISTICS_TAGS                         : BPS DURATION NUMBER_OF_FRAMES NUMBER_OF_BYTES
DURATION                                 : 01:32:10.048000000
NUMBER_OF_FRAMES                         : 172814
NUMBER_OF_BYTES                          : 309682688
Видео
Идентификатор                            : 1
Формат                                   : AVC
Формат/Информация                        : Advanced Video Codec
Профиль формата                          : [url=mailto:High@L4.1]High@L4.1[/url]
Параметр CABAC формата                   : Да
Параметр ReFrames формата                : 2 кадра
Идентификатор кодека                     : V_MPEG4/ISO/AVC
Продолжительность                        : 1 ч. 32 м.
Битрейт                                  : 4960 Кбит/сек
Ширина                                   : 1920 пикселей
Высота                                   : 1036 пикселей
Соотношение сторон                       : 1,85:1
Режим частоты кадров                     : Постоянный
Частота кадров                           : 23,976 кадра/сек
Цветовое пространство                    : YUV
Субдискретизация насыщенности            : 4:2:0
Битовая глубина                          : 8 бит
Тип развёртки                            : Прогрессивная
Бит/(Пиксели*Кадры)                      : 0.104
Размер потока                            : 3,08 Гбайт (85%)
Библиотека кодирования                   : x264 core 142
Настройки программы                      : cabac=1 / ref=1 / deblock=1:-1:-1 / analyse=0x3:0 / me=hex / subme=5 / psy=0 / mixed_ref=0 / me_range=16 / chroma_me=1 / trellis=0 / 8x8dct=1 / cqm=0 / deadzone=21,11 / fast_pskip=1 / chroma_qp_offset=0 / threads=16 / lookahead_threads=4 / sliced_threads=0 / nr=0 / decimate=1 / interlaced=0 / bluray_compat=0 / constrained_intra=0 / bframes=2 / b_pyramid=0 / b_adapt=1 / b_bias=0 / direct=1 / weightb=1 / open_gop=0 / weightp=0 / keyint=24 / keyint_min=13 / scenecut=40 / intra_refresh=0 / rc=abr / mbtree=0 / bitrate=4960 / ratetol=1.0 / qcomp=0.60 / qpmin=0 / qpmax=69 / qpstep=4 / ip_ratio=1.40 / pb_ratio=1.30 / aq=1:1.00
Default                                  : Да
Forced                                   : Нет
Основные цвета                           : BT.709
Характеристики трансфера                 : BT.709
Коэффициенты матрицы                     : BT.709
Аудио #1
Идентификатор                            : 2
Формат                                   : MPEG Audio
Версия формата                           : Version 1
Профиль формата                          : Layer 3
Режим                                    : Joint stereo
Идентификатор кодека                     : A_MPEG/L3
Идентификатор кодека/Подсказка           : MP3
Продолжительность                        : 1 ч. 32 м.
Вид битрейта                             : Постоянный
Битрейт                                  : 256 Кбит/сек
Каналы                                   : 2 канала
Частота                                  : 44,1 КГц
Метод сжатия                             : С потерями
Размер потока                            : 169 Мбайт (5%)
Библиотека кодирования                   : LAME3.99r
Настройки программы                      : -m j -V 4 -q 3 -lowpass 19.7
Язык                                     : Russian
Default                                  : Нет
Forced                                   : Нет
Аудио #2
Идентификатор                            : 3
Формат                                   : AC-3
Формат/Информация                        : Audio Coding 3
Расширение режима                        : CM (complete main)
Параметр Endianness формата              : Big
Идентификатор кодека                     : A_AC3
Продолжительность                        : 1 ч. 32 м.
Вид битрейта                             : Постоянный
Битрейт                                  : 448 Кбит/сек
Каналы                                   : 6 каналов
Расположение каналов                     : Front: L C R, Side: L R, LFE
Частота                                  : 48,0 КГц
Битовая глубина                          : 16 бит
Метод сжатия                             : С потерями
Размер потока                            : 295 Мбайт (8%)
Язык                                     : Spanish
Default                                  : Нет
Forced                                   : Нет
Скриншоты:

[Цитировать]



Показать сообщения:    

Текущее время: 10-Дек 06:05

Часовой пояс: UTC + 3


Вы не можете начинать темы
Вы не можете отвечать на сообщения
Вы не можете редактировать свои сообщения
Вы не можете удалять свои сообщения
Вы не можете голосовать в опросах
Вы не можете прикреплять файлы к сообщениям
Вы не можете скачивать файлы

!ВНИМАНИЕ!
Сайт не предоставляет электронные версии произведений, а занимается лишь коллекционированием и каталогизацией ссылок, присылаемых и публикуемых на форуме нашими читателями. Если вы являетесь правообладателем какого-либо представленного материала и не желаете, чтобы ссылка на него находилась в нашем каталоге, свяжитесь с нами, и мы незамедлительно удалим ее. Файлы для обмена на трекере предоставлены пользователями сайта, и администрация не несет ответственности за их содержание. Просьба не заливать файлы, защищенные авторскими правами, а также файлы нелегального содержания!