[ Сегодня идет свободное скачивание без начисления Download ]


Статистика раздачи
Нет
 
   
 
Top  
 
 
--
Модная штучка / After the Ball
-- Год выпуска: 2015
Страна: Канада
Производство: Don Carmody Productions, Jane Silverstone Segal Productions, Martinelli Films, Myriad Pictures Inc., Pacific Northwest Pictures, TVA Films
Жанр: Комедия
Режиссёр: Шон Гэррити
В ролях: Портия Даблдэй, Марк-Андре Гронден, Крис Нот, Лорен Холли, Натали Крилл, Анна Хопкинс, Давид Микаэль, Мими Кузык, Карло Рота, Колин Мохри
Перевод: Профессиональный (дублированный) [iTunes]
Субтитры: Отсутствуют
Описание: Мечта Кейт — стать дизайнером модного дома. Но несмотря на то, что она обладает ярким талантом, она не может получить эту работу… Никто не доверяет дочери гуру розничных магазинов готовой одежды, «навеянной» теми самыми дизайнерами «Высокой моды», на которых так хочет работать Кейт. Кто же захочет иметь шпиона при рождении новых фасонов и горячих трендов? И тогда она пускается на хитрость, которая приводит ее к успеху и не только в карьере…-- --Премьера (мир): 27 февраля 2015
Премьера (РФ): 26 марта 2015, «Экспонента»
Релиз на DVD: 28 апреля 2015, «CD Land»
-- --Качество: WEB-DL 720p
Продолжительность: 01:37:48
Формат: MKV
Видео кодек: H 264
Аудио кодек: AC3
Видео: 960х690@1280x690 (1.85:1), 25 fps, MPEG4 AVC, ~3955 kbps avg, 0.239 bit/pixel
Аудио: 48 kHz, AC3 Dolby Digital, 3/2 (L,C,R,l,r) + LFE ch, ~384.00 kbps-

MediaInfo

General
Unique ID : 226023395616846636323423110366623704980 (0xAA0A85C77A9A82D6B51BEB3356102794)
Complete name : C:\After.the.Ball.2015.D.WEB-DL.720p.mkv
Format : Matroska
Format version : Version 4 / Version 2
File size : 3.02 GiB
Duration : 1h 37mn
Overall bit rate : 4 427 Kbps
Encoded date : UTC 2015-05-04 21:52:53
Writing application : mkvmerge v6.9.1 ('Blue Panther') 64bit built on Apr 18 2014 18:23:38
Writing library : libebml v1.3.0 + libmatroska v1.4.1
Video
ID : 1
Format : AVC
Format/Info : Advanced Video Codec
Format profile : Main@L3.1
Format settings, CABAC : No
Format settings, ReFrames : 2 frames
Codec ID : V_MPEG4/ISO/AVC
Duration : 1h 37mn
Bit rate : 3 955 Kbps
Width : 960 pixels
Height : 690 pixels
Display aspect ratio : 1.855
Frame rate : 25.000 fps
Color space : YUV
Chroma subsampling : 4:2:0
Bit depth : 8 bits
Scan type : Progressive
Bits/(Pixel*Frame) : 0.239
Stream size : 2.70 GiB (89%)
Language : English
Default : Yes
Forced : No
Color primaries : BT.709-5, BT.1361, IEC 61966-2-4, SMPTE RP177
Transfer characteristics : BT.709-5, BT.1361
Matrix coefficients : BT.709-5, BT.1361, IEC 61966-2-4 709, SMPTE RP177
Audio
ID : 2
Format : AC-3
Format/Info : Audio Coding 3
Mode extension : CM (complete main)
Codec ID : A_AC3
Duration : 1h 37mn
Bit rate mode : Constant
Bit rate : 384 Kbps
Channel(s) : 6 channels
Channel positions : Front: L C R, Side: L R, LFE
Sampling rate : 48.0 KHz
Bit depth : 16 bits
Compression mode : Lossy
Stream size : 269 MiB (9%)
Language : Russian
Default : Yes
Forced : No
Menu
00:00:00.000 : en:Глава 1
00:05:28.000 : en:Глава 2
00:12:17.000 : en:Глава 3
00:16:16.000 : en:Глава 4
00:21:57.000 : en:Глава 5
00:27:01.000 : en:Глава 6
00:32:49.000 : en:Глава 7
00:37:27.000 : en:Глава 8
00:42:14.000 : en:Глава 9
00:48:22.000 : en:Глава 10
00:54:03.000 : en:Глава 11
00:59:28.000 : en:Глава 12
01:06:12.000 : en:Глава 13
01:10:14.000 : en:Глава 14
01:15:34.000 : en:Глава 15
01:20:29.000 : en:Глава 16
01:26:21.000 : en:Глава 17
01:32:13.000 : en:Глава 18
-

Скриншоты

-
-

[Цитировать]



Показать сообщения:    

Текущее время: 09-Дек 14:41

Часовой пояс: UTC + 3


Вы не можете начинать темы
Вы не можете отвечать на сообщения
Вы не можете редактировать свои сообщения
Вы не можете удалять свои сообщения
Вы не можете голосовать в опросах
Вы не можете прикреплять файлы к сообщениям
Вы не можете скачивать файлы

!ВНИМАНИЕ!
Сайт не предоставляет электронные версии произведений, а занимается лишь коллекционированием и каталогизацией ссылок, присылаемых и публикуемых на форуме нашими читателями. Если вы являетесь правообладателем какого-либо представленного материала и не желаете, чтобы ссылка на него находилась в нашем каталоге, свяжитесь с нами, и мы незамедлительно удалим ее. Файлы для обмена на трекере предоставлены пользователями сайта, и администрация не несет ответственности за их содержание. Просьба не заливать файлы, защищенные авторскими правами, а также файлы нелегального содержания!