[ Сегодня идет свободное скачивание без начисления Download ]


Статистика раздачи
Нет
 
   
 
Top  
 
 
Загадочная история Бенджамина Баттона / The Curious Case of Benjamin Button Информация о фильме
Название: Загадочная история Бенджамина Баттона
Оригинальное название: The Curious Case of Benjamin Button
Год выхода: 2008
Жанр: фантастика, драма
Режиссер: Дэвид Финчер /David Fincher/
В ролях: Кейт Бланшетт /Cate Blanchett/, Джулия Ормонд /Julia Ormond/, Брэд Питт /Brad Pitt/, Фаун А. Чэмберс /Faune A. Chambers/, Элиас Котеас /Elias Koteas/, Донна ДюПлантье /Donna DuPlantier/, Джейсон Флеминг /Jason Flemyng/...
О фильме:
Фильм о мужчине, который родился в возрасте 80-ти лет, а затем… начал молодеть. Этот человек, как и каждый из нас, не мог остановить время. Его путь в ХХI век, берущий свое начало в Новом Орлеане в 1918-м году в самом конце Первой Мировой войны, будет столь необычен, что вряд ли мог иметь место в жизни кого-либо другого. Фильм повествует о судьбе уникального человека, о людях и событиях, что ждут его впереди, о любви, которую он обретет и потеряет, о радостях жизни и грусти потерь и о том, что остается с нами вне времени.

Страна: США
Продолжительность: 02:46:02
Перевод: Русский дублированный + Украинский дублированный (отдельно) + Оригинальная, английская дорожка (отдельно)
Файл
Кодек: MKV, H.264
Качество: BDRip 720p (Source: Blu-ray Disc)
Видео: 4265 kbps; 0.259 bit/pixel; 1280 x 536; 2.35:1; 23.976 fps
Звук #1: AC3 Dolby Digital; 448.00 kbps, 6 Ch - RUS DUB
Звук #2: AC3 Dolby Digital; 448.00 kbps, 6 Ch - UKR DUB (отдельно / скачать с Яндекс Диск)
Звук #3: AC3 Dolby Digital; 448.00 kbps, 6 Ch - ENG (отдельно / скачать с Яндекс Диск)
Субтитры: Русские (форсированные, полные), Украинские (форсированные), Английские.
Размер: 5.58 GB
SAMPLE / скачать с Яндекс Диск

MediaInfo

General
Complete name : Zagadochnaya.Istoriya.Bendzhamina.Battona.2008.RUS.BDRip.720p.h264.AC3.-HQ-ViDEO.mkv
Format : Matroska
File size : 5.58 GiB
Duration : 2h 46mn
Overall bit rate : 4 809 Kbps
Movie name : The Curious Case of Benjamin Button (2008)
Encoded date : UTC 2011-02-07 10:40:22
Writing application : mkvmerge v3.3.0 ('Language') built on Mar 24 2010 14:59:24
Writing library : libebml v0.8.0 + libmatroska v0.9.0
Video
ID : 1
Format : AVC
Format/Info : Advanced Video Codec
Format profile : [email protected]
Format settings, CABAC : Yes
Format settings, ReFrames : 6 frames
Codec ID : V_MPEG4/ISO/AVC
Duration : 2h 46mn
Bit rate mode : Variable
Bit rate : 4 265 Kbps
Width : 1 280 pixels
Height : 536 pixels
Display aspect ratio : 2.35:1
Frame rate : 23.976 fps
Color space : YUV
Chroma subsampling : 4:2:0
Bit depth : 8 bits
Scan type : Progressive
Bits/(Pixel*Frame) : 0.259
Stream size : 4.95 GiB (89%)
Title : Encoded by GYN
Audio
ID : 2
Format : AC-3
Format/Info : Audio Coding 3
Mode extension : CM (complete main)
Codec ID : A_AC3
Duration : 2h 46mn
Bit rate mode : Constant
Bit rate : 448 Kbps
Channel(s) : 6 channels
Channel positions : Front: L C R, Side: L R, LFE
Sampling rate : 48.0 KHz
Bit depth : 16 bits
Stream size : 532 MiB (9%)
Title : DUB
Language : Russian
Text #1
ID : 3
Format : UTF-8
Codec ID : S_TEXT/UTF8
Codec ID/Info : UTF-8 Plain Text
Title : Forced
Language : Russian
Text #2
ID : 4
Format : UTF-8
Codec ID : S_TEXT/UTF8
Codec ID/Info : UTF-8 Plain Text
Title : Forced
Language : Ukrainian
Text #3
ID : 5
Format : UTF-8
Codec ID : S_TEXT/UTF8
Codec ID/Info : UTF-8 Plain Text
Language : Russian
Text #4
ID : 6
Format : UTF-8
Codec ID : S_TEXT/UTF8
Codec ID/Info : UTF-8 Plain Text
Language : English

Скриншоты




[Цитировать]



Показать сообщения:    

Текущее время: 06-Дек 03:48

Часовой пояс: UTC + 3


Вы не можете начинать темы
Вы не можете отвечать на сообщения
Вы не можете редактировать свои сообщения
Вы не можете удалять свои сообщения
Вы не можете голосовать в опросах
Вы не можете прикреплять файлы к сообщениям
Вы не можете скачивать файлы

!ВНИМАНИЕ!
Сайт не предоставляет электронные версии произведений, а занимается лишь коллекционированием и каталогизацией ссылок, присылаемых и публикуемых на форуме нашими читателями. Если вы являетесь правообладателем какого-либо представленного материала и не желаете, чтобы ссылка на него находилась в нашем каталоге, свяжитесь с нами, и мы незамедлительно удалим ее. Файлы для обмена на трекере предоставлены пользователями сайта, и администрация не несет ответственности за их содержание. Просьба не заливать файлы, защищенные авторскими правами, а также файлы нелегального содержания!