[ Сегодня идет свободное скачивание без начисления Download ]


Статистика раздачи
Нет
 
   
 
Top  
 
 
Нежный полицейский / Tendre poulet Название: Нежный полицейский
Оригинальное название: Tendre poulet
Год выпуска: 1978
Страна: Франция
Жанр: боевик, триллер, комедия, экранизация
Продолжительность: 01:45:57
Перевод: профессиональный многоголосый
Режиссёр: Филипп Де Брока
В ролях: Анни Жирардо, Филипп Нуаре, Катрин Альрик, Юбер Дешан, Полетт Дюбо, Роже Дюма, Раймон Жером, Ги Маршан, Симона Ренан, Жорж Вильсон, Моник Тарбес, Анри Черняк, Морис Иллуз, Давид Габисон, Гэбриел Жаббур, Мишель Роше, Жак Буде, Анна Гейлор, Жак Франц, Франсис Лемэр, Жаклин Дуайен
Описание: Анни Жирардо в роли комиссара полиции. Она случайно встречает старого знакомого, с которым когда-то вместе училась. Между ними разгорается роман, и только через некоторое время профессор, преподающий греческий язык в колледже, узнаёт, что женщина работает в полиции да ещё и ведёт важное расследование, связанное с самыми настоящими убийствами. Кто-то убивает депутатов шилом с изображением леопарда на рукоятке. Профессору приходится на своей шкуре убедиться в том, что работа полицейских полна опасностей... Экранизация произведения Жан-Поль Рулана.

Качество: BDRip 1080p
Формат: MKV
Видео: MPEG-4 AVC, 17.8 Mбит/с, 1800x1080, 24 кадр/с
Аудио 1: русский, AC3, 192 kbps, 2 ch, 48 kHz [профессиональный многоголосый, НТВ]
Аудио 2: французский, DTS, 1509 kbps, 2 ch, 48 kHz [оригинал]

Инфо-файл

Общее
Уникальный идентификатор : 247724365472782600238051118881018381202 (0xBA5DFA331316691387F455042C628392)
Полное имя : D:VideoНежный полицейский.1977.BDRip.1080p.mkv
Формат : Matroska
Версия формата : Version 4 / Version 2
Размер файла : 14,7 Гбайт
Продолжительность : 1 ч. 45 м.
Общий поток : 19,9 Мбит/сек
Название фильма : BDRip -- STarankov
Дата кодирования : UTC 2015-05-22 04:57:26
Программа кодирования : mkvmerge v7.9.0 ('Birds') 64bit
Библиотека кодирования : libebml v1.3.1 + libmatroska v1.4.2
DURATION : 01:45:56.000000000
NUMBER_OF_FRAMES : 595875
NUMBER_OF_BYTES : 1198900564
_STATISTICS_WRITING_APP : mkvmerge v7.9.0 ('Birds') 64bit
_STATISTICS_WRITING_DATE_UTC : 2015-05-22 04:57:26
_STATISTICS_TAGS : BPS DURATION NUMBER_OF_FRAMES NUMBER_OF_BYTES
Видео
Идентификатор : 1
Формат : AVC
Формат/Информация : Advanced Video Codec
Профиль формата : [email protected]
Параметр CABAC формата : Да
Параметр ReFrames формата : 4 кадра
Идентификатор кодека : V_MPEG4/ISO/AVC
Продолжительность : 1 ч. 45 м.
Битрейт : 17,8 Мбит/сек
Ширина : 1800 пикселей
Высота : 1080 пикселей
Соотношение сторон : 1,667
Режим частоты кадров : Постоянный
Частота кадров : 24,000 кадра/сек
Цветовое пространство : YUV
Субдискретизация насыщенности : 4:2:0
Битовая глубина : 8 бит
Тип развёртки : Прогрессивная
Бит/(Пиксели*Кадры) : 0.381
Размер потока : 13,1 Гбайт (89%)
Библиотека кодирования : x264 core 146 r2538 121396c
Настройки программы : cabac=1 / ref=4 / deblock=1:-1:-1 / analyse=0x3:0x113 / me=umh / subme=10 / psy=1 / psy_rd=1.00:0.15 / mixed_ref=1 / me_range=32 / chroma_me=1 / trellis=2 / 8x8dct=1 / cqm=0 / deadzone=21,11 / fast_pskip=1 / chroma_qp_offset=-3 / threads=6 / lookahead_threads=1 / sliced_threads=0 / nr=0 / decimate=1 / interlaced=0 / bluray_compat=0 / constrained_intra=0 / bframes=11 / b_pyramid=2 / b_adapt=2 / b_bias=0 / direct=1 / weightb=1 / open_gop=0 / weightp=2 / keyint=230 / keyint_min=23 / scenecut=40 / intra_refresh=0 / rc_lookahead=40 / rc=crf / mbtree=0 / crf=19.7 / qcomp=0.60 / qpmin=0 / qpmax=69 / qpstep=4 / vbv_maxrate=40000 / vbv_bufsize=50000 / crf_max=0.0 / nal_hrd=none / filler=0 / ip_ratio=1.40 / pb_ratio=1.30 / aq=1:1.00
Язык : French
Default : Да
Forced : Нет
DURATION : 01:45:57.000000000
NUMBER_OF_FRAMES : 152568
NUMBER_OF_BYTES : 14425209326
_STATISTICS_WRITING_APP : mkvmerge v7.9.0 ('Birds') 64bit
_STATISTICS_WRITING_DATE_UTC : 2015-05-22 04:57:26
_STATISTICS_TAGS : BPS DURATION NUMBER_OF_FRAMES NUMBER_OF_BYTES
Аудио #1
Идентификатор : 2
Формат : AC-3
Формат/Информация : Audio Coding 3
Расширение режима : CM (complete main)
Параметр Endianness формата : Big
Идентификатор кодека : A_AC3
Продолжительность : 1 ч. 45 м.
Вид битрейта : Постоянный
Битрейт : 192 Кбит/сек
Каналы : 2 канала
Расположение каналов : Front: L R
Частота : 48,0 КГц
Битовая глубина : 16 бит
Метод сжатия : С потерями
Размер потока : 146 Мбайт (1%)
Заголовок : MVO (HTB)
Язык : Russian
Default : Да
Forced : Нет
Аудио #2
Идентификатор : 3
Формат : DTS
Формат/Информация : Digital Theater Systems
Режим : 16
Параметр Endianness формата : Big
Идентификатор кодека : A_DTS
Продолжительность : 1 ч. 45 м.
Вид битрейта : Постоянный
Битрейт : 1509 Кбит/сек
Каналы : 2 канала
Расположение каналов : Front: L R
Частота : 48,0 КГц
Битовая глубина : 16 бит
Метод сжатия : С потерями
Размер потока : 1,12 Гбайт (8%)
Заголовок : Original
Язык : French
Default : Нет
Forced : Нет

Скриншоты

[Цитировать]



Показать сообщения:    

Текущее время: 04-Дек 23:26

Часовой пояс: UTC + 3


Вы не можете начинать темы
Вы не можете отвечать на сообщения
Вы не можете редактировать свои сообщения
Вы не можете удалять свои сообщения
Вы не можете голосовать в опросах
Вы не можете прикреплять файлы к сообщениям
Вы не можете скачивать файлы

!ВНИМАНИЕ!
Сайт не предоставляет электронные версии произведений, а занимается лишь коллекционированием и каталогизацией ссылок, присылаемых и публикуемых на форуме нашими читателями. Если вы являетесь правообладателем какого-либо представленного материала и не желаете, чтобы ссылка на него находилась в нашем каталоге, свяжитесь с нами, и мы незамедлительно удалим ее. Файлы для обмена на трекере предоставлены пользователями сайта, и администрация не несет ответственности за их содержание. Просьба не заливать файлы, защищенные авторскими правами, а также файлы нелегального содержания!