[ Сегодня идет свободное скачивание без начисления Download ]


Статистика раздачи
Нет
 
   
 
Top  
 
 
Гнездо дракона / Dragon Nest: Warriors' Dawn
Русское название: Гнездо дракона
Оригинальное название: Dragon Nest: Warriors' Dawn
Год выпуска: 2014
Жанр: мультфильм, фэнтези, приключения, семейный
Выпущено: США, Китай, Франция
Режиссер: Юэфэн Сонг
В ролях: Цзяо Сюй , Гуаньлин Джи , Йинг Хуан , Давей Шен , Сянлонг Менг , Йе Сунь , Тиан Джин , Хон Шан , Цзытун Ся , Блайт Оффарт , Бьянка Коллинз , Саймон Джэглом
Перевод: Дублированный - [Лицензия]

Сюжет фильма:
Кто бы мог подумать, что всегда неуклюжий, но несомненно талантливый парень станет великим героем, который спасет свою красивейшую планету от пробудившегося зла?
Много лет, пока легендарный Черный дракон спал, земля Алтера хранила хрупкий мир между расами людей, эльфов и неведомых нашему миру животных. Когда же он пробудился, охваченные ужасом жители были вынуждены бежать сквозь остров в попытке найти спасение...
Наш герой Ламберт в компании своих пушистых компаньонов отправляется в путь полный веселых развлечений и приключений, встречая настоящих друзей и любовь в лице прекрасной эльфийской девочки. Объединившись, они находят тайную дорогу к пещере дракона, а юный воин выполняет возложенную на него важнейшую миссию: он входит в доверие к Черному Дракону, чтобы с честью и юмором выйти победителем.

Качество: BDRip 1080p
Формат: AVC (библиотека кодирования x.264)
Контейнер (Расширение): MKV
Видео: 1920x1038, 8520 Кбит/сек, 24 кадр/сек, 0,178 Бит/[Пиксели*Кадры]
Аудио: русский / AC3 / 5.1 / 48 kHz / 640 kbps / |Дублированный|
Навигация по главам(Чаптеры): есть
Продолжительность: 01:30:01Автор рипа: Сообщество:

MediaInfo

Format : Matroska
Format version : Version 2
File size : 5.76 GiB
Duration : 1h 30mn
Overall bit rate : 9 162 Kbps
Movie name : Gnezdo drakona.(2014).BDRip.1080p.[denis100]
Encoded date : UTC 2015-05-27 13:06:18
Writing application : mkvmerge v5.8.0 ('No Sleep / Pillow') built on Sep 2 2012 15:37:04
Writing library : libebml v1.2.3 + libmatroska v1.3.0
Video
ID : 1
Format : AVC
Format/Info : Advanced Video Codec
Format profile : High@L4.1
Format settings, CABAC : Yes
Format settings, ReFrames : 4 frames
Codec ID : V_MPEG4/ISO/AVC
Duration : 1h 30mn
Bit rate : 8 520 Kbps
Width : 1 920 pixels
Height : 1 038 pixels
Display aspect ratio : 1.850
Frame rate : 24.000 fps
Color space : YUV
Chroma subsampling : 4:2:0
Bit depth : 8 bits
Scan type : Progressive
Bits/(Pixel*Frame) : 0.178
Stream size : 5.24 GiB (91%)
Title : Gnezdo drakona.(2014).BDRip.1080p.[denis100]
Writing library : x264 core 146 r2538 121396c
Encoding settings : cabac=1 / ref=4 / deblock=1:0:0 / analyse=0x3:0x133 / me=umh / subme=11 / psy=1 / psy_rd=1.00:0.00 / mixed_ref=1 / me_range=32 / chroma_me=1 / trellis=2 / 8x8dct=1 / cqm=0 / deadzone=21,11 / fast_pskip=0 / chroma_qp_offset=-2 / threads=6 / lookahead_threads=1 / sliced_threads=0 / nr=0 / decimate=1 / interlaced=0 / bluray_compat=0 / constrained_intra=0 / bframes=5 / b_pyramid=2 / b_adapt=2 / b_bias=0 / direct=3 / weightb=1 / open_gop=0 / weightp=2 / keyint=240 / keyint_min=23 / scenecut=40 / intra_refresh=0 / rc=2pass / mbtree=0 / bitrate=8520 / ratetol=1.0 / qcomp=0.60 / qpmin=0 / qpmax=69 / qpstep=4 / cplxblur=20.0 / qblur=0.5 / ip_ratio=1.40 / pb_ratio=1.30 / aq=1:1.00
Language : English
Default : Yes
Forced : No
Audio
ID : 2
Format : AC-3
Format/Info : Audio Coding 3
Mode extension : CM (complete main)
Codec ID : A_AC3
Duration : 1h 30mn
Bit rate mode : Constant
Bit rate : 640 Kbps
Channel(s) : 6 channels
Channel positions : Front: L C R, Side: L R, LFE
Sampling rate : 48.0 KHz
Bit depth : 16 bits
Compression mode : Lossy
Stream size : 412 MiB (7%)
Title : Дублированный
Language : Russian
Default : Yes
Forced : No
Menu
00:00:00.000 : en:Chapter 01
00:00:04.000 : en:Chapter 02
00:09:47.875 : en:Chapter 03
00:22:21.458 : en:Chapter 04
00:34:00.791 : en:Chapter 05
00:45:00.666 : en:Chapter 06
00:53:09.125 : en:Chapter 07
01:03:32.208 : en:Chapter 08
01:15:11.541 : en:Chapter 09

x264

x264 [info]: frame I:1123 Avg QP:13.78 size:195087
x264 [info]: frame P:50883 Avg QP:16.52 size: 67118
x264 [info]: frame B:77632 Avg QP:18.09 size: 27286

Скриншоты

[Цитировать]



Показать сообщения:    

Текущее время: 09-Дек 03:01

Часовой пояс: UTC + 3


Вы не можете начинать темы
Вы не можете отвечать на сообщения
Вы не можете редактировать свои сообщения
Вы не можете удалять свои сообщения
Вы не можете голосовать в опросах
Вы не можете прикреплять файлы к сообщениям
Вы не можете скачивать файлы

!ВНИМАНИЕ!
Сайт не предоставляет электронные версии произведений, а занимается лишь коллекционированием и каталогизацией ссылок, присылаемых и публикуемых на форуме нашими читателями. Если вы являетесь правообладателем какого-либо представленного материала и не желаете, чтобы ссылка на него находилась в нашем каталоге, свяжитесь с нами, и мы незамедлительно удалим ее. Файлы для обмена на трекере предоставлены пользователями сайта, и администрация не несет ответственности за их содержание. Просьба не заливать файлы, защищенные авторскими правами, а также файлы нелегального содержания!