[ Сегодня идет свободное скачивание без начисления Download ]


Статистика раздачи
Нет
 
   
 
Top  
 
 
Охотник на лис / Foxcatcher
«Эта история шокировала мир»
Русское название: Охотник на лис
Оригинальное название: Foxcatcher
Год выпуска: 2014
Жанр: драма, спорт, история
Выпущено: США
Режиссер: Беннетт Миллер
В ролях: Стив Карелл , Ченнинг Татум , Марк Руффало , Сиенна Миллер , Ванесса Редгрейв , Энтони Майкл Холл , Гай Бойд , Бретт Райс , Джексон Фрейзер , Самара Ли , Френсис Дж. Мерфи III , Джейн Моудер
Перевод: Дублированный - [Лицензия]

Сюжет фильма:
Мультимиллионер Джон Дюпон приглашает в свое поместье обладателя олимпийской золотой медали по борьбе Марка Шульца для подготовки команды к Олимпийским играм в Сеуле 1988 года. В надежде посвятить всего себя тренировкам, достойно выступить и выйти из тени своего брата, легендарного борца Дейва Шульца, Марк принимает предложение. Но параноик Дюпон затевает игру в кошки-мышки с Марком и Дейвом.

R - Лицам до 17 лет обязательно присутствие взрослого

Знаете ли вы, что...

Для реализации проекта потребовались многие годы. На главные роли на раннем этапе подготовки к съемкам рассматривались такие актеры как Хит Леджер, Райан Гослинг и Билл Найи.
Во время кинопроб Стив Карелл носил разные варианты искусственных носов. Нанесение грима занимало два часа. Стиву меняли прическу и наносили грим, чтобы изменить оттенок кожи.
Готовясь к своей роли, Стив Карелл часами смотрел нарезки, посвященные Джону Дюпону. После показа фильма на Каннском Кинофестивале Карелл сказал журналистам следующее: «Я пересмотрел все, что смог, перечитал все, что смог о Дюпоне и попытался стать похожим на него человеком».
Во время подготовки к съемкам Ченнинг Татум и Марк Руффало на протяжении полугода интенсивно занимались борьбой.
На роль Дюпона рассматривался Гари Олдман.
Фильм основан на реальной истории.
Нэнси Шульц, вдова Дэвида Шульца, отдала Марку Руффало очки своего мужа, так что в фильме Руффало носит настоящие очки Дэвида.
Качество: BDRip 1080p
Формат: AVC (библиотека кодирования x.264)
Контейнер (Расширение): MKV
Видео: 1920x1036, 11000 Кбит/сек, 23,976 кадр/сек, 0,231 Бит/[Пиксели*Кадры]
Аудио №1: русский / AC3 / 5.1 / 48 kHz / 640 kbps / |Дублированный, BD RUS|
Аудио №2: английский / AC3 / 5.1 / 48 kHz / 640 kbps /
Субтитры: русские (Full), английские (Full), английские (SDH)
Навигация по главам(Чаптеры): есть
Продолжительность: 02:14:26

MediaInfo

Format : Matroska
Format version : Version 2
File size : 11.5 GiB
Duration : 2h 14mn
Overall bit rate : 12.3 Mbps
Movie name : Ohotnik na lis.(2014).BDRip.1080p.[denis100]
Encoded date : UTC 2015-05-27 14:21:30
Writing application : mkvmerge v5.8.0 ('No Sleep / Pillow') built on Sep 2 2012 15:37:04
Writing library : libebml v1.2.3 + libmatroska v1.3.0
Video
ID : 1
Format : AVC
Format/Info : Advanced Video Codec
Format profile : High@L4.1
Format settings, CABAC : Yes
Format settings, ReFrames : 4 frames
Codec ID : V_MPEG4/ISO/AVC
Duration : 2h 14mn
Bit rate : 11.0 Mbps
Width : 1 920 pixels
Height : 1 036 pixels
Display aspect ratio : 1.85:1
Frame rate mode : Constant
Frame rate : 23.976 fps
Color space : YUV
Chroma subsampling : 4:2:0
Bit depth : 8 bits
Scan type : Progressive
Bits/(Pixel*Frame) : 0.231
Stream size : 10.1 GiB (88%)
Title : Ohotnik na lis.(2014).BDRip.1080p.[denis100]
Writing library : x264 core 144 r2525 40bb568
Encoding settings : cabac=1 / ref=4 / deblock=1:-3:-3 / analyse=0x3:0x133 / me=umh / subme=11 / psy=1 / psy_rd=1.00:0.05 / mixed_ref=1 / me_range=32 / chroma_me=1 / trellis=2 / 8x8dct=1 / cqm=0 / deadzone=21,11 / fast_pskip=0 / chroma_qp_offset=-3 / threads=6 / lookahead_threads=1 / sliced_threads=0 / nr=0 / decimate=1 / interlaced=0 / bluray_compat=0 / constrained_intra=0 / bframes=10 / b_pyramid=2 / b_adapt=2 / b_bias=0 / direct=3 / weightb=1 / open_gop=0 / weightp=2 / keyint=240 / keyint_min=23 / scenecut=40 / intra_refresh=0 / rc=2pass / mbtree=0 / bitrate=11000 / ratetol=1.0 / qcomp=0.60 / qpmin=0 / qpmax=69 / qpstep=4 / cplxblur=20.0 / qblur=0.5 / ip_ratio=1.40 / pb_ratio=1.30 / aq=1:0.90
Language : English
Default : Yes
Forced : No
Audio #1
ID : 2
Format : AC-3
Format/Info : Audio Coding 3
Mode extension : CM (complete main)
Format settings, Endianness : Big
Codec ID : A_AC3
Duration : 2h 14mn
Bit rate mode : Constant
Bit rate : 640 Kbps
Channel(s) : 6 channels
Channel positions : Front: L C R, Side: L R, LFE
Sampling rate : 48.0 KHz
Bit depth : 16 bits
Compression mode : Lossy
Stream size : 615 MiB (5%)
Title : Дублированный, BD RUS
Language : Russian
Default : Yes
Forced : No
Audio #2
ID : 3
Format : AC-3
Format/Info : Audio Coding 3
Mode extension : CM (complete main)
Format settings, Endianness : Big
Codec ID : A_AC3
Duration : 2h 14mn
Bit rate mode : Constant
Bit rate : 640 Kbps
Channel(s) : 6 channels
Channel positions : Front: L C R, Side: L R, LFE
Sampling rate : 48.0 KHz
Bit depth : 16 bits
Compression mode : Lossy
Stream size : 615 MiB (5%)
Title : English
Language : English
Default : No
Forced : No
Text #1
ID : 4
Format : UTF-8
Codec ID : S_TEXT/UTF8
Codec ID/Info : UTF-8 Plain Text
Title : Full
Language : Russian
Default : No
Forced : No
Text #2
ID : 5
Format : UTF-8
Codec ID : S_TEXT/UTF8
Codec ID/Info : UTF-8 Plain Text
Title : Full
Language : English
Default : No
Forced : No
Text #3
ID : 6
Format : UTF-8
Codec ID : S_TEXT/UTF8
Codec ID/Info : UTF-8 Plain Text
Title : SDH
Language : English
Default : No
Forced : No
Menu
00:00:00.000 : en:00:00:00.000
00:06:21.505 : en:00:06:21.505
00:14:56.769 : en:00:14:56.769
00:27:36.153 : en:00:27:36.153
00:36:29.519 : en:00:36:29.519
00:40:51.739 : en:00:40:51.739
00:47:27.802 : en:00:47:27.802
00:58:13.655 : en:00:58:13.655
01:06:09.965 : en:01:06:09.965
01:16:35.423 : en:01:16:35.423
01:21:49.194 : en:01:21:49.194
01:25:58.278 : en:01:25:58.278
01:37:25.338 : en:01:37:25.338
01:44:00.567 : en:01:44:00.567
01:51:13.750 : en:01:51:13.750
01:56:19.680 : en:01:56:19.680

x264

x264 [info]: frame I:1094 Avg QP:15.49 size:267945
x264 [info]: frame P:39406 Avg QP:17.54 size:108788
x264 [info]: frame B:152893 Avg QP:20.16 size: 42543

Скриншоты

[Цитировать]



Показать сообщения:    

Текущее время: 09-Дек 18:29

Часовой пояс: UTC + 3


Вы не можете начинать темы
Вы не можете отвечать на сообщения
Вы не можете редактировать свои сообщения
Вы не можете удалять свои сообщения
Вы не можете голосовать в опросах
Вы не можете прикреплять файлы к сообщениям
Вы не можете скачивать файлы

!ВНИМАНИЕ!
Сайт не предоставляет электронные версии произведений, а занимается лишь коллекционированием и каталогизацией ссылок, присылаемых и публикуемых на форуме нашими читателями. Если вы являетесь правообладателем какого-либо представленного материала и не желаете, чтобы ссылка на него находилась в нашем каталоге, свяжитесь с нами, и мы незамедлительно удалим ее. Файлы для обмена на трекере предоставлены пользователями сайта, и администрация не несет ответственности за их содержание. Просьба не заливать файлы, защищенные авторскими правами, а также файлы нелегального содержания!