[ Сегодня идет свободное скачивание без начисления Download ]


Статистика раздачи
Нет
 
   
 
Top  
 
 
--
Звериный отряд / Cuccioli: Il Paese del Vento
-- Год выпуска: 2014
Страна: Италия
Производство: Gruppo Alcuni
Жанр: Мультфильм
Режиссёр: Серджо Манфио
В ролях: Лаура Ленги, Джероламо Алькьери, Паоло Ломбарди, Эдоардо Невола
Перевод: Профессиональный (дублированный) [чистый звук]
Субтитры: Отсутствуют
Описание: Команда, состоящая из отважных зверушек, живет в Стране Ветров — в мире, где абсолютно все работает только от энергии ветра: автомобили, дирижабли и даже автоматы с мороженым. Ветер здесь дует всегда благодаря необыкновенному Вращающемуся Колесу, расположенному внутри горы. Но, однажды, Злая ведьма похищает Колесо, чтобы осуществить свои коварные планы и вся жизнь в Стране Ветров останавливается. Сможет ли Звериный отряд помешать злой колдунье и спасти жителей Страны Ветров?-- --Премьера (мир): 27 марта 2014
Премьера (РФ): 29 января 2015, «Ракета Релизинг»
-- --Качество: DVDRip
Продолжительность: 01:17:43
Формат: AVI
Видео кодек: XviD
Аудио кодек: AC3
Видео: 720x400 (1.80:1), 50 fps, XviD build50, ~2059 kbps avg, 0.143 bit/pixel
Аудио #1: 48 kHz, AC3 Dolby Digital, 2/0 (L,R) ch, ~224.00 kbps (русский)
Аудио #2: 48 kHz, AC3 Dolby Digital, 2/0 (L,R) ch, ~224.00 kbps (английский)-

MediaInfo

General
Complete name : C:\Zverinyj.otryad.2014.D.DVDRip.avi
Format : AVI
Format/Info : Audio Video Interleave
File size : 1.38 GiB
Duration : 1h 17mn
Overall bit rate : 2 536 Kbps
Writing application : VirtualDubMod 1.5.10.2 (build 2540/release)
Writing library : VirtualDubMod build 2540/release
Video
ID : 0
Format : MPEG-4 Visual
Format profile : Advanced Simple@L5
Format settings, BVOP : 2
Format settings, QPel : No
Format settings, GMC : No warppoints
Format settings, Matrix : Default (MPEG)
Codec ID : XVID
Codec ID/Hint : XviD
Duration : 1h 17mn
Bit rate : 2 060 Kbps
Width : 720 pixels
Height : 400 pixels
Display aspect ratio : 16:9
Frame rate : 50.000 fps
Color space : YUV
Chroma subsampling : 4:2:0
Bit depth : 8 bits
Scan type : Progressive
Compression mode : Lossy
Bits/(Pixel*Frame) : 0.143
Stream size : 1.12 GiB (81%)
Writing library : XviD 1.2.1 (UTC 2008-12-04)
Audio #1
ID : 1
Format : AC-3
Format/Info : Audio Coding 3
Mode extension : CM (complete main)
Codec ID : 2000
Duration : 1h 17mn
Bit rate mode : Constant
Bit rate : 224 Kbps
Channel(s) : 2 channels
Channel positions : Front: L R
Sampling rate : 48.0 KHz
Bit depth : 16 bits
Compression mode : Lossy
Stream size : 124 MiB (9%)
Alignment : Split accross interleaves
Interleave, duration : 20 ms (1.00 video frame)
Interleave, preload duration : 500 ms
Audio #2
ID : 2
Format : AC-3
Format/Info : Audio Coding 3
Mode extension : CM (complete main)
Codec ID : 2000
Duration : 1h 17mn
Bit rate mode : Constant
Bit rate : 224 Kbps
Channel(s) : 2 channels
Channel positions : Front: L R
Sampling rate : 48.0 KHz
Bit depth : 16 bits
Compression mode : Lossy
Stream size : 125 MiB (9%)
Alignment : Split accross interleaves
Interleave, duration : 20 ms (1.00 video frame)
Interleave, preload duration : 500 ms
-

[Цитировать]



Показать сообщения:    

Текущее время: 07-Дек 13:32

Часовой пояс: UTC + 3


Вы не можете начинать темы
Вы не можете отвечать на сообщения
Вы не можете редактировать свои сообщения
Вы не можете удалять свои сообщения
Вы не можете голосовать в опросах
Вы не можете прикреплять файлы к сообщениям
Вы не можете скачивать файлы

!ВНИМАНИЕ!
Сайт не предоставляет электронные версии произведений, а занимается лишь коллекционированием и каталогизацией ссылок, присылаемых и публикуемых на форуме нашими читателями. Если вы являетесь правообладателем какого-либо представленного материала и не желаете, чтобы ссылка на него находилась в нашем каталоге, свяжитесь с нами, и мы незамедлительно удалим ее. Файлы для обмена на трекере предоставлены пользователями сайта, и администрация не несет ответственности за их содержание. Просьба не заливать файлы, защищенные авторскими правами, а также файлы нелегального содержания!