[ Сегодня идет свободное скачивание без начисления Download ]


Статистика раздачи
Нет
 
   
 
Top  
 
 
--
Опасное погружение / Pressure
-- Год выпуска: 2015
Страна: Великобритания
Производство: Bigscope Films
Жанр: Триллер
Режиссёр: Рон Скальпелло
В ролях: Дэнни Хьюстон, Мэттью Гуд, Джо Коул, Алан МакКенна, Йен Пири, Дэйзи Лоу, Гемита Самарра, Ричард Битта
Перевод: Профессиональный (полное дублирование) [iTunes]
Субтитры: Отсутствуют
Описание: Маленькая капсула с четырьмя водолазами застряла на дне восточноафриканских вод на глубине пяти километров. Кислорода с каждым вдохом становится все меньше, а надежда на чудесное спасение тает с каждой минутой. Брошенным на произвол судьбы, им ничего не остается, кроме как попытаться спастись своими силами, полагаясь лишь на собственную храбрость и отчаянное желание выжить.-- --Премьера (мир): 23 февраля 2015,
Премьера (РФ): 30 апреля 2015, «Люксор»
-- --Качество: WEB-DL 720p
Продолжительность: 01:31:14
Формат: MKV
Видео кодек: H 264
Аудио кодек: AC3
Видео: 1280x690 (1.85:1), 24 fps, MPEG4 AVC, ~3970 kbps avg, 0.187 bit/pixel
Аудио: 48 kHz, AC3 Dolby Digital, 3/2 (L,C,R,l,r) + LFE ch, ~384.00 kbps-

MediaInfo

General
Unique ID : 226712980249737337229448223391225312075 (0xAA8F54ED33DC321E9908B102A415734B)
Complete name : C:\Opasnoe.pogruzhenie.2015.D.WEB-DL.720p.UNIONGANG.ELEKTRI4KA.mkv
Format : Matroska
Format version : Version 4 / Version 2
File size : 2.83 GiB
Duration : 1h 31mn
Overall bit rate : 4 443 Kbps
Encoded date : UTC 2015-05-28 18:10:46
Writing application : mkvmerge v6.9.1 ('Blue Panther') 64bit built on Apr 18 2014 18:23:38
Writing library : libebml v1.3.0 + libmatroska v1.4.1
Video
ID : 1
Format : AVC
Format/Info : Advanced Video Codec
Format profile : High@L3.1
Format settings, CABAC : No
Format settings, ReFrames : 2 frames
Codec ID : V_MPEG4/ISO/AVC
Duration : 1h 31mn
Bit rate : 3 970 Kbps
Width : 1 280 pixels
Height : 690 pixels
Display aspect ratio : 1.855
Frame rate : 24.000 fps
Color space : YUV
Chroma subsampling : 4:2:0
Bit depth : 8 bits
Scan type : Progressive
Bits/(Pixel*Frame) : 0.187
Stream size : 2.53 GiB (89%)
Language : English
Default : Yes
Forced : No
Color primaries : BT.709-5, BT.1361, IEC 61966-2-4, SMPTE RP177
Transfer characteristics : BT.709-5, BT.1361
Matrix coefficients : BT.709-5, BT.1361, IEC 61966-2-4 709, SMPTE RP177
Audio
ID : 2
Format : AC-3
Format/Info : Audio Coding 3
Mode extension : CM (complete main)
Codec ID : A_AC3
Duration : 1h 31mn
Bit rate mode : Constant
Bit rate : 384 Kbps
Channel(s) : 6 channels
Channel positions : Front: L C R, Side: L R, LFE
Sampling rate : 48.0 KHz
Bit depth : 16 bits
Compression mode : Lossy
Stream size : 251 MiB (9%)
Language : Russian
Default : Yes
Forced : No
Menu
00:00:00.000 : en:Глава 1
00:08:08.000 : en:Глава 2
00:12:39.000 : en:Глава 3
00:17:15.000 : en:Глава 4
00:23:32.000 : en:Глава 5
00:30:19.000 : en:Глава 6
00:35:17.000 : en:Глава 7
00:39:46.000 : en:Глава 8
00:44:13.000 : en:Глава 9
00:50:12.000 : en:Глава 10
00:56:18.000 : en:Глава 11
01:01:43.000 : en:Глава 12
01:06:42.000 : en:Глава 13
01:10:25.000 : en:Глава 14
01:14:08.000 : en:Глава 15
01:20:48.000 : en:Глава 16
-

Скриншоты

-

[Цитировать]



Показать сообщения:    

Текущее время: 09-Дек 03:05

Часовой пояс: UTC + 3


Вы не можете начинать темы
Вы не можете отвечать на сообщения
Вы не можете редактировать свои сообщения
Вы не можете удалять свои сообщения
Вы не можете голосовать в опросах
Вы не можете прикреплять файлы к сообщениям
Вы не можете скачивать файлы

!ВНИМАНИЕ!
Сайт не предоставляет электронные версии произведений, а занимается лишь коллекционированием и каталогизацией ссылок, присылаемых и публикуемых на форуме нашими читателями. Если вы являетесь правообладателем какого-либо представленного материала и не желаете, чтобы ссылка на него находилась в нашем каталоге, свяжитесь с нами, и мы незамедлительно удалим ее. Файлы для обмена на трекере предоставлены пользователями сайта, и администрация не несет ответственности за их содержание. Просьба не заливать файлы, защищенные авторскими правами, а также файлы нелегального содержания!