[ Сегодня идет свободное скачивание без начисления Download ]


Статистика раздачи
Скачал: [ 1 ]
 
   
 
Top  
 
 
--
Аватар / Avatar
«Это новый мир»
-- Год выпуска: 2009
Страна: США, Великобритания
Производство: 20th Century Fox Film Corporation, Dune Entertainment, Giant Studios Inc., Ingenious Media, Millennium Films
Жанр: Фантастика, боевик, драма, приключения
Режиссёр: Джеймс Кэмерон
В ролях: Сэм Уортингтон, Зои Салдана, Стивен Лэнг, Мишель Родригес, Сигурни Уивер, Джованни Рибизи, Лаз Алонсо, Джоэл Мур, Уэс Стьюди, Си Си Эйч Паундер, Питер Менса, Джулин Рене, Мэтт Джералд, Шон Энтони Моран, Ноли МакКул, Дин Ноусли, Дайлип Рао
Перевод: Профессиональный (полное дублирование) [лицензия], + Оригинал
Субтитры: Русские, английские
Описание: Далекое будущее. Джейк - ветеран войны, страдающий параличом ног — не совсем добровольно отправляется в экспедицию на планету Пандора, которую населяет разумная гуманоидная раса Нави. Джейк — злой и изнуренный человек, разгневанный на весь мир из-за своего состояния. Он умен и изобретателен, но свою светлую сторону старательно скрывает. Страшная трагедия оставила шрамы на его теле и душе, но события на Пандоре постепенно меняют его жизнь.Нейтири — любовь и учитель Джейка в одном лице, коренная жительница Пандоры. Она излучает доброту, вынослива и атлетична. Она — воин…-- --Премьера (мир): 10 декабря 2009
Премьера (РФ): 17 декабря 2009, «Двадцатый Век Фокс СНГ»
Ре-релиз (РФ): 26 августа 2010 3D
Релиз на DVD: 22 апреля 2010, «Двадцатый Век Фокс СНГ»
Релиз на Blu-Ray: 29 апреля 2010, «Двадцатый Век Фокс СНГ»
-- --Качество: BDRip-AVC
Продолжительность: 02:58:10
Формат: MKV
Видео кодек: H 264
Аудио кодек: AC3
Видео: 960x540 (16:9) 23.976 fps, MPEG4 AVC, ~2736 kbps avg, 0.220 bit/pixel
Аудио #1: 48 kHz, AC3 Dolby Digital, 3/2 (L,C,R,l,r) + LFE ch, ~384.00 kbps (русский)
Аудио #2: 48 kHz, AC3 Dolby Digital, 3/2 (L,C,R,l,r) + LFE ch, ~384.00 kbps (английский)-

MediaInfo

General
Unique ID : 185704285237287482537722285964775319610 (0x8BB55828E42DA254A28A234CE5B2E83A)
Complete name : H:\Фильмы\Avatar.2009.Extended.DUAL.BDRip.x264.-HELLYWOOD.mkv
Format : Matroska
Format version : Version 4 / Version 2
File size : 4.36 GiB
Duration : 2h 58mn
Overall bit rate : 3 506 Kbps
Movie name : Avatar (2009) [Extended Collector's Edition] - HELLYWOOD
Encoded date : UTC 2014-07-13 08:48:56
Writing application : mkvmerge v5.9.0 ('On The Loose') built on Dec 15 2012 16:39:58
Writing library : libebml v1.3.0 + libmatroska v1.4.0
Video
ID : 1
Format : AVC
Format/Info : Advanced Video Codec
Format profile : High@L4.1
Format settings, CABAC : Yes
Format settings, ReFrames : 10 frames
Codec ID : V_MPEG4/ISO/AVC
Duration : 2h 58mn
Bit rate : 2 736 Kbps
Width : 960 pixels
Height : 540 pixels
Display aspect ratio : 16:9
Original display aspect ratio : 16:9
Frame rate mode : Variable
Frame rate : 23.976 fps
Color space : YUV
Chroma subsampling : 4:2:0
Bit depth : 8 bits
Scan type : Progressive
Bits/(Pixel*Frame) : 0.220
Stream size : 3.32 GiB (76%)
Title : potroks
Writing library : x264 core 128 r2216M 198a7ea
Encoding settings : cabac=1 / ref=11 / deblock=1:-3:-3 / analyse=0x3:0x133 / me=umh / subme=9 / psy=1 / psy_rd=1.05:0.01 / mixed_ref=1 / me_range=32 / chroma_me=1 / trellis=2 / 8x8dct=1 / cqm=0 / deadzone=21,11 / fast_pskip=0 / chroma_qp_offset=-3 / threads=6 / lookahead_threads=1 / sliced_threads=0 / nr=0 / decimate=0 / interlaced=0 / bluray_compat=0 / constrained_intra=0 / bframes=12 / b_pyramid=1 / b_adapt=2 / b_bias=0 / direct=3 / weightb=1 / open_gop=0 / weightp=2 / keyint=240 / keyint_min=23 / scenecut=40 / intra_refresh=0 / rc_lookahead=150 / rc=2pass / mbtree=1 / bitrate=2736 / ratetol=1.0 / qcomp=0.70 / qpmin=0 / qpmax=69 / qpstep=4 / cplxblur=20.0 / qblur=0.5 / vbv_maxrate=20000 / vbv_bufsize=20000 / nal_hrd=none / ip_ratio=1.35 / aq=1:0.80
Language : English
Default : Yes
Forced : No
Audio #1
ID : 2
Format : AC-3
Format/Info : Audio Coding 3
Mode extension : CM (complete main)
Codec ID : A_AC3
Duration : 2h 58mn
Bit rate mode : Constant
Bit rate : 384 Kbps
Channel(s) : 6 channels
Channel positions : Front: L C R, Side: L R, LFE
Sampling rate : 48.0 KHz
Bit depth : 16 bits
Compression mode : Lossy
Delay relative to video : 70ms
Stream size : 489 MiB (11%)
Title : Dub | DD 5.1 @ 384 kbps - BD EUR
Language : Russian
Default : Yes
Forced : Yes
Audio #2
ID : 3
Format : AC-3
Format/Info : Audio Coding 3
Mode extension : CM (complete main)
Codec ID : A_AC3
Duration : 2h 58mn
Bit rate mode : Constant
Bit rate : 384 Kbps
Channel(s) : 6 channels
Channel positions : Front: L C R, Side: L R, LFE
Sampling rate : 48.0 KHz
Bit depth : 16 bits
Compression mode : Lossy
Delay relative to video : 70ms
Stream size : 489 MiB (11%)
Title : Original | DD 5.1 @ 384 kbps
Language : English
Default : No
Forced : No
Text #1
ID : 4
Format : UTF-8
Codec ID : S_TEXT/UTF8
Codec ID/Info : UTF-8 Plain Text
Title : Extra.Forced.Color
Language : Russian
Default : Yes
Forced : Yes
Text #2
ID : 5
Format : UTF-8
Codec ID : S_TEXT/UTF8
Codec ID/Info : UTF-8 Plain Text
Title : Extra.Full.Color
Language : Russian
Default : No
Forced : No
Text #3
ID : 6
Format : UTF-8
Codec ID : S_TEXT/UTF8
Codec ID/Info : UTF-8 Plain Text
Title : Extra.Full
Language : Russian
Default : No
Forced : No
Text #4
ID : 7
Format : UTF-8
Codec ID : S_TEXT/UTF8
Codec ID/Info : UTF-8 Plain Text
Title : Forced
Language : Russian
Default : No
Forced : No
Text #5
ID : 8
Format : UTF-8
Codec ID : S_TEXT/UTF8
Codec ID/Info : UTF-8 Plain Text
Title : Full
Language : Russian
Default : No
Forced : No
Text #6
ID : 9
Format : UTF-8
Codec ID : S_TEXT/UTF8
Codec ID/Info : UTF-8 Plain Text
Title : Forced
Language : English
Default : No
Forced : No
Text #7
ID : 10
Format : UTF-8
Codec ID : S_TEXT/UTF8
Codec ID/Info : UTF-8 Plain Text
Title : SDH
Language : English
Default : No
Forced : No
Text #8
ID : 11
Format : UTF-8
Codec ID : S_TEXT/UTF8
Codec ID/Info : UTF-8 Plain Text
Title : Full
Language : English
Default : No
Forced : No
Menu
00:00:00.000 : en:00:00:00.000
00:05:25.575 : en:00:05:25.575
00:10:12.278 : en:00:10:12.278
00:10:24.457 : en:00:10:24.457
00:10:37.303 : en:00:10:37.303
00:11:47.916 : en:00:11:47.916
00:15:59.208 : en:00:15:59.208
00:17:54.782 : en:00:17:54.782
00:23:54.892 : en:00:23:54.892
00:27:54.548 : en:00:27:54.548
00:28:02.556 : en:00:28:02.556
00:28:45.223 : en:00:28:45.223
00:30:14.021 : en:00:30:14.021
00:30:27.617 : en:00:30:27.617
00:32:04.464 : en:00:32:04.464
00:32:27.904 : en:00:32:27.904
00:37:16.526 : en:00:37:16.526
00:39:08.054 : en:00:39:08.054
00:41:18.476 : en:00:41:18.476
00:47:43.319 : en:00:47:43.319
00:48:09.178 : en:00:48:09.178
00:49:16.912 : en:00:49:16.912
00:53:05.015 : en:00:53:05.015
00:54:22.009 : en:00:54:22.009
00:55:42.214 : en:00:55:42.214
00:57:44.044 : en:00:57:44.044
00:58:32.050 : en:00:58:32.050
01:01:09.416 : en:01:01:09.416
01:03:09.619 : en:01:03:09.619
01:03:57.208 : en:01:03:57.208
01:07:03.227 : en:01:07:03.227
01:09:40.635 : en:01:09:40.635
01:11:50.222 : en:01:11:50.222
01:15:18.889 : en:01:15:18.889
01:15:53.799 : en:01:15:53.799
01:17:32.231 : en:01:17:32.231
01:18:07.891 : en:01:18:07.891
01:22:38.120 : en:01:22:38.120
01:25:59.488 : en:01:25:59.488
01:26:12.709 : en:01:26:12.709
01:27:42.299 : en:01:27:42.299
01:27:54.436 : en:01:27:54.436
01:33:00.408 : en:01:33:00.408
01:36:03.424 : en:01:36:03.424
01:37:36.642 : en:01:37:36.642
01:37:36.893 : en:01:37:36.893
01:44:15.291 : en:01:44:15.291
01:46:49.236 : en:01:46:49.236
01:48:14.029 : en:01:48:14.029
01:48:58.198 : en:01:48:58.198
01:50:02.596 : en:01:50:02.596
01:51:53.582 : en:01:51:53.582
01:58:30.895 : en:01:58:30.895
02:02:13.284 : en:02:02:13.284
02:07:51.664 : en:02:07:51.664
02:09:30.554 : en:02:09:30.554
02:12:36.615 : en:02:12:36.615
02:16:03.363 : en:02:16:03.363
02:19:31.655 : en:02:19:31.655
02:23:59.631 : en:02:23:59.631
02:30:05.079 : en:02:30:05.079
02:32:13.291 : en:02:32:13.291
02:32:59.212 : en:02:32:59.212
02:33:56.852 : en:02:33:56.852
02:34:52.908 : en:02:34:52.908
02:40:02.259 : en:02:40:02.259
02:40:45.886 : en:02:40:45.886
02:41:03.987 : en:02:41:03.987
02:45:33.215 : en:02:45:33.215
02:46:30.814 : en:02:46:30.814
02:46:48.498 : en:02:46:48.498
02:48:56.793 : en:02:48:56.793
02:49:11.725 : en:02:49:11.725
02:51:32.073 : en:02:51:32.073
- -

[Цитировать]



Показать сообщения:    

Текущее время: 07-Дек 15:36

Часовой пояс: UTC + 3


Вы не можете начинать темы
Вы не можете отвечать на сообщения
Вы не можете редактировать свои сообщения
Вы не можете удалять свои сообщения
Вы не можете голосовать в опросах
Вы не можете прикреплять файлы к сообщениям
Вы не можете скачивать файлы

!ВНИМАНИЕ!
Сайт не предоставляет электронные версии произведений, а занимается лишь коллекционированием и каталогизацией ссылок, присылаемых и публикуемых на форуме нашими читателями. Если вы являетесь правообладателем какого-либо представленного материала и не желаете, чтобы ссылка на него находилась в нашем каталоге, свяжитесь с нами, и мы незамедлительно удалим ее. Файлы для обмена на трекере предоставлены пользователями сайта, и администрация не несет ответственности за их содержание. Просьба не заливать файлы, защищенные авторскими правами, а также файлы нелегального содержания!