[ Сегодня идет свободное скачивание без начисления Download ]


Статистика раздачи
Нет
 
   
 
Top  
 
 
Эффект Лазаря / The Lazarus Effect
Год выпуска: 2015
Страна: США
Жанр: Триллер, ужасы
Режиссёр: Дэвид Гелб
В ролях: Марк Дюпласс, Оливия Уайлд, Дональд Гловер, Эван Питерс, Сара Болгер, Рэй Уайз, Скотт Шелдон, Эмили Келавос, Джеймс Эрл, Эми Акино
Перевод: Профессиональный (дублированный) [чистый звук], + Оригинал
Субтитры: Отсутствуют
Описание: Команда любознательных студентов узнает секрет воскрешения людей из мертвых. Однако их открытие приводит к страшным последствиям.


Качество: BDRip 1080p
Продолжительность: 01:26:33 час.
Формат: MKV
Видео кодек: H 264
Аудио кодек: AС3 / DTS
Видео: 1920x800 (2.40:1), 23.976 fps, MPEG4 AVC, ~ 9770 kbps avg, 0.265 bit/pixel
Аудио1 48 kHz, AC3 Dolby Digital, 2/0 (L,R), ~384.00 kbps avg (Русский)
Аудио2: 48 kHz, DTS, 3/2 (L,C,R,l,r) + LFE ch, 1510.00 kbps (Английский)

Скриншоты

MediaInfo

General
Unique ID : 211744414463695905465065537768520112103 (0x9F4C7DA7825A26ED8EEFBA6F134757E7)
Complete name : D:\Новая папка\3ffect.1azarya.2015.D.BDRip.1080p_.mkv
Format : Matroska
Format version : Version 4 / Version 2
File size : 6.77 GiB
Duration : 1h 23mn
Overall bit rate : 11.6 Mbps
Encoded date : UTC 2015-05-28 22:07:14
Writing application : mkvmerge v7.6.0 ('Garden of Dreams') 32bit built on Feb 8 2015 12:51:39
Writing library : libebml v1.3.1 + libmatroska v1.4.2
Video
ID : 1
Format : AVC
Format/Info : Advanced Video Codec
Format profile : High@L4.1
Format settings, CABAC : Yes
Format settings, ReFrames : 5 frames
Codec ID : V_MPEG4/ISO/AVC
Duration : 1h 23mn
Bit rate : 9 770 Kbps
Width : 1 920 pixels
Height : 800 pixels
Display aspect ratio : 2.40:1
Frame rate mode : Constant
Frame rate : 23.976 fps
Color space : YUV
Chroma subsampling : 4:2:0
Bit depth : 8 bits
Scan type : Progressive
Bits/(Pixel*Frame) : 0.265
Stream size : 5.53 GiB (82%)
Writing library : x264 core 144 r2525 40bb568
Encoding settings : cabac=1 / ref=5 / deblock=1:0:0 / analyse=0x3:0x133 / me=umh / subme=7 / psy=1 / psy_rd=1.00:0.00 / mixed_ref=1 / me_range=16 / chroma_me=1 / trellis=1 / 8x8dct=1 / cqm=0 / deadzone=21,11 / fast_pskip=0 / chroma_qp_offset=-2 / threads=60 / lookahead_threads=6 / sliced_threads=0 / nr=0 / decimate=1 / interlaced=0 / bluray_compat=0 / constrained_intra=0 / bframes=3 / b_pyramid=2 / b_adapt=1 / b_bias=0 / direct=1 / weightb=1 / open_gop=0 / weightp=2 / keyint=250 / keyint_min=23 / scenecut=40 / intra_refresh=0 / rc_lookahead=40 / rc=2pass / mbtree=1 / bitrate=9770 / ratetol=1.0 / qcomp=0.60 / qpmin=0 / qpmax=69 / qpstep=4 / cplxblur=20.0 / qblur=0.5 / ip_ratio=1.40 / aq=1:1.00
Language : English
Default : Yes
Forced : No
Audio #1
ID : 2
Format : AC-3
Format/Info : Audio Coding 3
Mode extension : CM (complete main)
Format settings, Endianness : Big
Codec ID : A_AC3
Duration : 1h 23mn
Bit rate mode : Constant
Bit rate : 384 Kbps
Channel(s) : 2 channels
Channel positions : Front: L R
Sampling rate : 48.0 KHz
Bit depth : 16 bits
Compression mode : Lossy
Stream size : 229 MiB (3%)
Language : Russian
Default : Yes
Forced : No
Audio #2
ID : 3
Format : DTS
Format/Info : Digital Theater Systems
Mode : 16
Format settings, Endianness : Big
Codec ID : A_DTS
Duration : 1h 23mn
Bit rate mode : Constant
Bit rate : 1 509 Kbps
Channel(s) : 6 channels
Channel positions : Front: L C R, Side: L R, LFE
Sampling rate : 48.0 KHz
Bit depth : 24 bits
Compression mode : Lossy
Stream size : 898 MiB (13%)
Language : English
Default : No
Forced : No
Menu
00:00:00.000 : en:00:00:00.000
00:03:07.771 : en:00:03:07.771
00:05:33.959 : en:00:05:33.959
00:09:33.948 : en:00:09:33.948
00:12:23.868 : en:00:12:23.868
00:15:19.043 : en:00:15:19.043
00:18:05.001 : en:00:18:05.001
00:20:52.751 : en:00:20:52.751
00:24:48.779 : en:00:24:48.779
00:29:18.632 : en:00:29:18.632
00:31:29.638 : en:00:31:29.638
00:35:53.985 : en:00:35:53.985
00:38:02.697 : en:00:38:02.697
00:41:47.171 : en:00:41:47.171
00:44:04.809 : en:00:44:04.809
00:46:36.002 : en:00:46:36.002
00:49:43.272 : en:00:49:43.272
00:53:35.462 : en:00:53:35.462
00:56:15.330 : en:00:56:15.330
00:58:58.535 : en:00:58:58.535
01:03:56.207 : en:01:03:56.207
01:08:36.446 : en:01:08:36.446
01:11:25.990 : en:01:11:25.990
01:16:08.105 : en:01:16:08.105

[Цитировать]



Показать сообщения:    

Текущее время: 02-Дек 22:54

Часовой пояс: UTC + 3


Вы не можете начинать темы
Вы не можете отвечать на сообщения
Вы не можете редактировать свои сообщения
Вы не можете удалять свои сообщения
Вы не можете голосовать в опросах
Вы не можете прикреплять файлы к сообщениям
Вы не можете скачивать файлы

!ВНИМАНИЕ!
Сайт не предоставляет электронные версии произведений, а занимается лишь коллекционированием и каталогизацией ссылок, присылаемых и публикуемых на форуме нашими читателями. Если вы являетесь правообладателем какого-либо представленного материала и не желаете, чтобы ссылка на него находилась в нашем каталоге, свяжитесь с нами, и мы незамедлительно удалим ее. Файлы для обмена на трекере предоставлены пользователями сайта, и администрация не несет ответственности за их содержание. Просьба не заливать файлы, защищенные авторскими правами, а также файлы нелегального содержания!