[ Сегодня идет свободное скачивание без начисления Download ]


Статистика раздачи
Нет
 
   
 
Top  
 
 
Робот по имени Чаппи / Chappie
Год выпуска: 2015
Страна: США, Мексика, ЮАР
Жанр: Фантастика, боевик, триллер
Режиссёр: Нил Бломкамп
В ролях: Шарлто Копли, Дев Патель, Ниндзя, Йоланди Фиссер, Хосе Пабло Кантильо, Хью Джекман, Сигурни Уивер, Брэндон Оре, Джонни Селема, Андерсон Купер
Перевод: Профессиональный (полное дублирование) [iTunes] + Оригинал
Субтитры: Английские
Описание: Чаппи — вундеркинд. Как и любой другой ребенок, он попадает под влияние своего окружения, и только его сердце и душа помогут ему найти свой путь. Но есть одна вещь, которая делает Чаппи непохожим на всех остальных: он — первый робот, способный чувствовать и думать.


Качество: BDRip 1080p
Продолжительность: 02:00:20 час.
Формат: MKV
Видео кодек: H 264
Аудио кодек: AС3 / DTS
Видео: 1920x800 (2.40:1), 23.976 fps, MPEG-4 AVC, ~ 8892 kbps avg, 0.241 bit/pixel
Аудио1: 48 kHz, AC3 Dolby Digital, 3/2 (L,C,R,l,r) + LFE ch, 384 kbps avg (Русский)
Аудио2: 48 kHz, DTS, 3/2 (L,C,R,l,r) + LFE ch, 1510.00 kbps (Английский)

Скриншоты

MediaInfo

General
Unique ID : 218467842126866454104199971971716069978 (0xA45B603B3AE789B4B7A03C81058BBA5A)
Complete name : D:\Новая папка\R0b0t.Chapp1e.2015.D.BDRip.1080p_.mkv
Format : Matroska
Format version : Version 2
File size : 9.06 GiB
Duration : 2h 0mn
Overall bit rate : 10.8 Mbps
Encoded date : UTC 2015-05-28 22:42:32
Writing application : mkvmerge v7.9.0 ('Birds') 64bit
Writing library : libebml v1.3.1 + libmatroska v1.4.2
Video
ID : 2
Format : AVC
Format/Info : Advanced Video Codec
Format profile : [email protected]
Format settings, CABAC : Yes
Format settings, ReFrames : 5 frames
Codec ID : V_MPEG4/ISO/AVC
Duration : 2h 0mn
Bit rate : 8 892 Kbps
Width : 1 920 pixels
Height : 800 pixels
Display aspect ratio : 2.40:1
Frame rate mode : Constant
Frame rate : 23.976 fps
Color space : YUV
Chroma subsampling : 4:2:0
Bit depth : 8 bits
Scan type : Progressive
Bits/(Pixel*Frame) : 0.241
Stream size : 7.29 GiB (80%)
Writing library : x264 core 144 r2525 40bb568
Encoding settings : cabac=1 / ref=5 / deblock=1:0:0 / analyse=0x3:0x133 / me=umh / subme=7 / psy=1 / psy_rd=1.00:0.00 / mixed_ref=1 / me_range=16 / chroma_me=1 / trellis=1 / 8x8dct=1 / cqm=0 / deadzone=21,11 / fast_pskip=0 / chroma_qp_offset=-2 / threads=18 / lookahead_threads=3 / sliced_threads=0 / nr=0 / decimate=1 / interlaced=0 / bluray_compat=0 / constrained_intra=0 / bframes=3 / b_pyramid=2 / b_adapt=1 / b_bias=0 / direct=1 / weightb=1 / open_gop=0 / weightp=2 / keyint=250 / keyint_min=23 / scenecut=40 / intra_refresh=0 / rc_lookahead=40 / rc=2pass / mbtree=1 / bitrate=8892 / ratetol=1.0 / qcomp=0.60 / qpmin=0 / qpmax=69 / qpstep=4 / cplxblur=20.0 / qblur=0.5 / ip_ratio=1.40 / aq=1:1.00
Language : English
Default : Yes
Forced : No
Audio #1
ID : 1
Format : AC-3
Format/Info : Audio Coding 3
Mode extension : CM (complete main)
Format settings, Endianness : Big
Codec ID : A_AC3
Duration : 2h 0mn
Bit rate mode : Constant
Bit rate : 384 Kbps
Channel(s) : 6 channels
Channel positions : Front: L C R, Side: L R, LFE
Sampling rate : 48.0 KHz
Bit depth : 16 bits
Compression mode : Lossy
Stream size : 330 MiB (4%)
Language : Russian
Default : Yes
Forced : No
Audio #2
ID : 3
Format : DTS
Format/Info : Digital Theater Systems
Mode : 16
Format settings, Endianness : Big
Codec ID : A_DTS
Duration : 2h 0mn
Bit rate mode : Constant
Bit rate : 1 509 Kbps
Channel(s) : 6 channels
Channel positions : Front: L C R, Side: L R, LFE
Sampling rate : 48.0 KHz
Bit depth : 24 bits
Compression mode : Lossy
Stream size : 1.27 GiB (14%)
Language : English
Default : No
Forced : No
Text
ID : 4
Format : UTF-8
Codec ID : S_TEXT/UTF8
Codec ID/Info : UTF-8 Plain Text
Title : English-Forced
Language : English
Default : Yes
Forced : Yes
Menu
00:00:00.000 : en:00:00:00.000
00:03:37.008 : en:00:03:37.008
00:09:55.261 : en:00:09:55.261
00:13:50.496 : en:00:13:50.496
00:21:53.646 : en:00:21:53.646
00:31:17.125 : en:00:31:17.125
00:37:19.320 : en:00:37:19.320
00:46:58.733 : en:00:46:58.733
00:54:36.690 : en:00:54:36.690
01:06:12.927 : en:01:06:12.927
01:09:57.652 : en:01:09:57.652
01:16:48.395 : en:01:16:48.395
01:24:59.553 : en:01:24:59.553
01:31:35.198 : en:01:31:35.198
01:42:36.942 : en:01:42:36.942
01:50:03.597 : en:01:50:03.597

[Цитировать]



Показать сообщения:    

Текущее время: 05-Дек 13:28

Часовой пояс: UTC + 3


Вы не можете начинать темы
Вы не можете отвечать на сообщения
Вы не можете редактировать свои сообщения
Вы не можете удалять свои сообщения
Вы не можете голосовать в опросах
Вы не можете прикреплять файлы к сообщениям
Вы не можете скачивать файлы

!ВНИМАНИЕ!
Сайт не предоставляет электронные версии произведений, а занимается лишь коллекционированием и каталогизацией ссылок, присылаемых и публикуемых на форуме нашими читателями. Если вы являетесь правообладателем какого-либо представленного материала и не желаете, чтобы ссылка на него находилась в нашем каталоге, свяжитесь с нами, и мы незамедлительно удалим ее. Файлы для обмена на трекере предоставлены пользователями сайта, и администрация не несет ответственности за их содержание. Просьба не заливать файлы, защищенные авторскими правами, а также файлы нелегального содержания!