[ Сегодня идет свободное скачивание без начисления Download ]


Статистика раздачи
Нет
 
   
 
Top  
 
 
Эффект Лазаря / The Lazarus Effect
Год выпуска: 2015
Страна: США
Жанр: Триллер, ужасы
Режиссёр: Дэвид Гелб
В ролях: Марк Дюпласс, Оливия Уайлд, Дональд Гловер, Эван Питерс, Сара Болгер, Рэй Уайз, Скотт Шелдон, Эмили Келавос, Джеймс Эрл, Эми Акино, Шон Т. Кришнан, Атор Тамрас, Като, Лииса Коэн, Дженнифер Флойд, Бруно Джойелло, Скотт Л. Трегер
Перевод: Профессиональный (дублированный) [чистый звук], + Оригинал
Субтитры: Отсутствуют
Описание: Группа студентов разрабатывает так называемую сыворотку "Лазаря", которая может воскрешать из мёртвых. Первый эксперимент они провели на мёртвой собаке и всеобщему удивлению сыворотка сработала. Однако что то пошло не по плану и собака умерла. Ребята решили провести над неё ещё один эксперимент, во время которого аспирантка Зои получила разряд током и умерла. В отчаянии ей вводят сыворотку "Лазаря". Девушка ожила и с ней начали происходить непонятные вещи, девушка уже не такая какой была до смерти.


Качество: BDRip 720p
Продолжительность: 01:19:37 час.
Формат: MKV
Видео кодек: H 264
Аудио кодек: AС3
Видео: 1280x536 (2.40:1), 23.976 fps, MPEG4 AVC, ~ 6006 kbps avg, 0.365 bit/pixel
Аудио1 48 kHz, AC3 Dolby Digital, 2/0 (L,R), ~384.00 kbps avg (Русский)
Аудио2: 48 kHz, AC3 Dolby Digital, 3/2 (L,C,R,l,r) + LFE ch, 448 kbps avg (Английский)

Скриншоты

MediaInfo

Общее
Уникальный идентификатор : 209713375463802515288846596537524752972 (0x9DC553B349073FB5ADC7B1E3A59D124C)
Полное имя : D:\The.Lazarus.Effect.2015.720p.BluRay.x264.mkv
Формат : Matroska
Версия формата : Version 4 / Version 2
Размер файла : 3,97 Гбайт
Продолжительность : 1 ч. 23 м.
Общий поток : 6840 Кбит/сек
Дата кодирования : UTC 2015-05-29 07:04:14
Программа кодирования : mkvmerge v7.8.0 ('River Man') 64bit built on Mar 27 2015 16:31:37
Библиотека кодирования : libebml v1.3.1 + libmatroska v1.4.2
DURATION : 01:23:11.968000000
NUMBER_OF_FRAMES : 155999
NUMBER_OF_BYTES : 279550208
_STATISTICS_WRITING_APP : mkvmerge v7.8.0 ('River Man') 64bit built on Mar 27 2015 16:31:37
_STATISTICS_WRITING_DATE_UTC : 2015-05-29 07:04:14
_STATISTICS_TAGS : BPS DURATION NUMBER_OF_FRAMES NUMBER_OF_BYTES
Видео
Идентификатор : 1
Формат : AVC
Формат/Информация : Advanced Video Codec
Профиль формата : High@L4.1
Параметр CABAC формата : Да
Параметр ReFrames формата : 5 кадров
Идентификатор кодека : V_MPEG4/ISO/AVC
Продолжительность : 1 ч. 23 м.
Битрейт : 6006 Кбит/сек
Ширина : 1280 пикселей
Высота : 536 пикселей
Соотношение сторон : 2,40:1
Режим частоты кадров : Постоянный
Частота кадров : 23,976 кадра/сек
Цветовое пространство : YUV
Субдискретизация насыщенности : 4:2:0
Битовая глубина : 8 бит
Тип развёртки : Прогрессивная
Бит/(Пиксели*Кадры) : 0.365
Размер потока : 3,41 Гбайт (86%)
Библиотека кодирования : x264 core 144 r2525 40bb568
Настройки программы : cabac=1 / ref=5 / deblock=1:0:0 / analyse=0x3:0x133 / me=umh / subme=7 / psy=1 / psy_rd=1.00:0.00 / mixed_ref=1 / me_range=16 / chroma_me=1 / trellis=1 / 8x8dct=1 / cqm=0 / deadzone=21,11 / fast_pskip=0 / chroma_qp_offset=-2 / threads=60 / lookahead_threads=4 / sliced_threads=0 / nr=0 / decimate=1 / interlaced=0 / bluray_compat=0 / constrained_intra=0 / bframes=3 / b_pyramid=2 / b_adapt=1 / b_bias=0 / direct=1 / weightb=1 / open_gop=0 / weightp=2 / keyint=250 / keyint_min=23 / scenecut=40 / intra_refresh=0 / rc_lookahead=40 / rc=2pass / mbtree=1 / bitrate=6006 / ratetol=1.0 / qcomp=0.60 / qpmin=0 / qpmax=69 / qpstep=4 / cplxblur=20.0 / qblur=0.5 / ip_ratio=1.40 / aq=1:1.00
Язык : English
Default : Да
Forced : Нет
DURATION : 01:23:11.912000000
NUMBER_OF_FRAMES : 119686
NUMBER_OF_BYTES : 3744249130
_STATISTICS_WRITING_APP : mkvmerge v7.8.0 ('River Man') 64bit built on Mar 27 2015 16:31:37
_STATISTICS_WRITING_DATE_UTC : 2015-05-29 07:04:14
_STATISTICS_TAGS : BPS DURATION NUMBER_OF_FRAMES NUMBER_OF_BYTES
Аудио #1
Идентификатор : 3
Формат : AC-3
Формат/Информация : Audio Coding 3
Расширение режима : CM (complete main)
Параметр Endianness формата : Big
Идентификатор кодека : A_AC3
Продолжительность : 1 ч. 23 м.
Вид битрейта : Постоянный
Битрейт : 384 Кбит/сек
Каналы : 2 канала
Расположение каналов : Front: L R
Частота : 48,0 КГц
Битовая глубина : 16 бит
Метод сжатия : С потерями
Размер потока : 229 Мбайт (6%)
Язык : Russian
Default : Да
Forced : Нет
Аудио #2
Идентификатор : 4
Формат : AC-3
Формат/Информация : Audio Coding 3
Расширение режима : CM (complete main)
Параметр Endianness формата : Big
Идентификатор кодека : A_AC3
Продолжительность : 1 ч. 23 м.
Вид битрейта : Постоянный
Битрейт : 448 Кбит/сек
Каналы : 6 каналов
Расположение каналов : Front: L C R, Side: L R, LFE
Частота : 48,0 КГц
Битовая глубина : 16 бит
Метод сжатия : С потерями
Размер потока : 267 Мбайт (7%)
Язык : English
Default : Нет
Forced : Нет
Текст
Идентификатор : 2
Формат : VobSub
Режим смешивания : zlib
Идентификатор кодека : S_VOBSUB
Идентификатор кодека/Информация : The same subtitle format used on DVDs
Язык : English
Default : Нет
Forced : Нет
Меню
00:00:00.000 : en:00:00:00.000
00:03:07.771 : en:00:03:07.771
00:05:33.959 : en:00:05:33.959
00:09:33.948 : en:00:09:33.948
00:12:23.868 : en:00:12:23.868
00:15:19.043 : en:00:15:19.043
00:18:05.001 : en:00:18:05.001
00:20:52.751 : en:00:20:52.751
00:24:48.779 : en:00:24:48.779
00:29:18.632 : en:00:29:18.632
00:31:29.638 : en:00:31:29.638
00:35:53.985 : en:00:35:53.985
00:38:02.697 : en:00:38:02.697
00:41:47.171 : en:00:41:47.171
00:44:04.809 : en:00:44:04.809
00:46:36.002 : en:00:46:36.002
00:49:43.272 : en:00:49:43.272
00:53:35.462 : en:00:53:35.462
00:56:15.330 : en:00:56:15.330
00:58:58.535 : en:00:58:58.535
01:03:56.207 : en:01:03:56.207
01:08:36.446 : en:01:08:36.446
01:11:25.990 : en:01:11:25.990
01:16:08.105 : en:01:16:08.105

[Цитировать]



Показать сообщения:    

Текущее время: 23-Фев 05:31

Часовой пояс: UTC + 3


Вы не можете начинать темы
Вы не можете отвечать на сообщения
Вы не можете редактировать свои сообщения
Вы не можете удалять свои сообщения
Вы не можете голосовать в опросах
Вы не можете прикреплять файлы к сообщениям
Вы не можете скачивать файлы

!ВНИМАНИЕ!
Сайт не предоставляет электронные версии произведений, а занимается лишь коллекционированием и каталогизацией ссылок, присылаемых и публикуемых на форуме нашими читателями. Если вы являетесь правообладателем какого-либо представленного материала и не желаете, чтобы ссылка на него находилась в нашем каталоге, свяжитесь с нами, и мы незамедлительно удалим ее. Файлы для обмена на трекере предоставлены пользователями сайта, и администрация не несет ответственности за их содержание. Просьба не заливать файлы, защищенные авторскими правами, а также файлы нелегального содержания!