[ Сегодня идет свободное скачивание без начисления Download ]


Статистика раздачи
Нет
 
   
 
Top  
 
 
-Экспедиция / Extinction (2014) HDRip- Производство: Великобритания, Dark Art Films, Hollywood Vision, Millennia Entertainment, Pinnacle Media
Жанр: Приключения
Режиссер: Адам Спинкс / Adam Spinks
Продюсер: Бен Лойд-Холмс, Мандра Друен, С.Дж. Эванс
Актеры: Бен Лойд-Холмс, Нейл Ньюбон, Дэниел Карен, Саймон Барбеидж, Долорес Рейналс, Росс О’Хеннесси, Эрнесто Лезек, Анджела Розмари Питерс
Описание:
В центре этой истории -группа во главе с довольно-таки уважаемым профессором. Ребята отправляются в экспедицию на большую реку, которая носит такое известное название как Амазонка. Там они хотят найти редкие виды животных, а может быть даже и несколько новых видов, но это если повезет. По пути у наших героев начинают твориться странные вещи. В результате всего этого, провожатые из местных отказываются от сопровождения этой группы, но почему. С этого момента всем становится еще страшнее...

Дата мировой премьеры: 24 августа 2014
Продолжительность: 01:42:26
Качество видео: HDRip
Перевод: Двуголосый закадровый, любительский
Озвучка / Автор перевода: ColdFilm
Субтитры: Отсутствуют
Видео: Xvid, 720x400 (1.80:1), ~1669 kbps avg
Аудио: MP3, 2 ch, ~192.00 kbps avg, CBR
Сэмпл: Скачать

Mediainfo:

General
Complete name                            : D:\Фильмы\Extinction.2014.L2.HDRip.avi
Format                                   : AVI
Format/Info                              : Audio Video Interleave
File size                                : 1.36 GiB
Duration                                 : 1h 44mn
Overall bit rate                         : 1 871 Kbps
Writing application                      : VirtualDubMod 1.5.10.2 (build 2540/release)
Writing library                          : VirtualDubMod build 2540/release
Video
ID                                       : 0
Format                                   : MPEG-4 Visual
Format profile                           : Advanced [email protected]
Format settings, BVOP                    : 4
Format settings, QPel                    : No
Format settings, GMC                     : 3 warppoints
Format settings, Matrix                  : Default (MPEG)
Codec ID                                 : XVID
Codec ID/Hint                            : XviD
Duration                                 : 1h 44mn
Bit rate                                 : 1 670 Kbps
Width                                    : 720 pixels
Height                                   : 400 pixels
Display aspect ratio                     : 16:9
Frame rate                               : 23.976 fps
Color space                              : YUV
Chroma subsampling                       : 4:2:0
Bit depth                                : 8 bits
Scan type                                : Progressive
Compression mode                         : Lossy
Bits/(Pixel*Frame)                       : 0.242
Stream size                              : 1.22 GiB (89%)
Writing library                          : XviD 1.2.1 (UTC 2008-12-04)
Audio
ID                                       : 1
Format                                   : MPEG Audio
Format version                           : Version 1
Format profile                           : Layer 3
Mode                                     : Joint stereo
Codec ID                                 : 55
Codec ID/Hint                            : MP3
Duration                                 : 1h 44mn
Bit rate mode                            : Constant
Bit rate                                 : 192 Kbps
Channel(s)                               : 2 channels
Sampling rate                            : 48.0 KHz
Compression mode                         : Lossy
Stream size                              : 143 MiB (10%)
Alignment                                : Aligned on interleaves
Interleave, duration                     : 42 ms (1.00 video frame)
Interleave, preload duration             : 504 ms
Writing library                          : LAME3.99.5
Скриншоты:

[Цитировать]



Показать сообщения:    

Текущее время: 04-Дек 23:27

Часовой пояс: UTC + 3


Вы не можете начинать темы
Вы не можете отвечать на сообщения
Вы не можете редактировать свои сообщения
Вы не можете удалять свои сообщения
Вы не можете голосовать в опросах
Вы не можете прикреплять файлы к сообщениям
Вы не можете скачивать файлы

!ВНИМАНИЕ!
Сайт не предоставляет электронные версии произведений, а занимается лишь коллекционированием и каталогизацией ссылок, присылаемых и публикуемых на форуме нашими читателями. Если вы являетесь правообладателем какого-либо представленного материала и не желаете, чтобы ссылка на него находилась в нашем каталоге, свяжитесь с нами, и мы незамедлительно удалим ее. Файлы для обмена на трекере предоставлены пользователями сайта, и администрация не несет ответственности за их содержание. Просьба не заливать файлы, защищенные авторскими правами, а также файлы нелегального содержания!