[ Сегодня идет свободное скачивание без начисления Download ]


Статистика раздачи
Нет
 
   
 
Top  
 
 
Государственная граница (1980-1988) Информация о фильме
Название: Государственная граница
Год выхода: 1980-1988
Жанр: Историко-приключенческий, военный, драма
Режиссер: Борис Степанов, Вячеслав Никифоров, Геннадий Иванов
В ролях: Игорь Старыгин, Марина Дюжева, Александр Денисов, Михаил Козаков, Владимир Новиков, Людмила Нильская, Анна Каменкова, Гирт Яковлев, Ирина Шевчук, Лидия Вележева, Аристарх Ливанов, Андро Кобаладзе, Эрнст Романов, Вия Артмане, Виктор Тарасов, Юрий Каюров, Петр Юрченков старший, Юрий Горобец, Юрий Катин-Ярцев, Эдуард Марцевич, Валентина Титова, Талгат Нигматулин, Олег Ефремов, Ростислав Янковский, Евгений Леонов-Гладышев, Семен Морозов, Андрей Смоляков, Арчил Гомиашвили, Геннадий Корольков, Вера Сотникова, Марина Левтова, Виктор Мирошниченко, Евгений Герасимов, Павел Винник, Алексей Кожевников, Улдис Лиелдидж, Алексей Булдаков, Владимир Изотов, Борислав Брондуков, Александр Белина, Анатолий Столбов
О фильме:
Историко-приключенческий фильм, рассказывающий о службе советских пограничников. Действие происходит в период с 1917 года по конец 1980-х и разворачивается на территории СССР от Дальнего Востока до западных границ. Сериал состоит из восьми фильмов, объединённых главными действующими лицами. Каждая серия посвящена событиям в определённый период развития пограничной службы.

Страна: СССР
Продолжительность: 16 х ~ 01:06:00
Перевод: не требуется
Файл
Кодек: MKV
Качество: DVDRip (AVC)
Видео: MPEG-4 AVC, ~ 2900 Кбит/с, 704x572@750x572, 704x568@750x568
Звук: AC3, 2 ch, 192 Кбит/с

Содержание

Сериал состоит из восьми фильмов (по две серии в каждом).
Фильм 1. "Мы наш, мы новый..." 1980
Фильм 2. "Мирное лето 21-го года". 1980
Фильм 3. "Восточный рубеж". 1981
Фильм 4. "Красный песок". 1984
Фильм 5. "Год сорок первый". 1986
Фильм 6. "За порогом победы". 1987
Фильм 7. "Соленый ветер". 1988
Фильм 8. "На дальнем пограничье". 1988

Медиа-Инфо

Общее
Уникальный идентификатор : 253662864119102374018685079602749841296 (0xBED5B0C9C25A86CDB6A4743BDD8D1F90)
Полное имя : R:МОИ РИПЫГос.граница_1980-88-DVDRip-AVCГраница-2.mkv
Формат : Matroska
Версия формата : Version 2
Размер файла : 1,38 Гбайт
Продолжительность : 1 ч. 5 м.
Общий поток : 2994 Кбит/сек
Дата кодирования : UTC 2015-04-25 14:10:29
Программа кодирования : mkvmerge v5.8.0 ('No Sleep / Pillow') built on Sep 2 2012 15:37:04
Библиотека кодирования : libebml v1.2.3 + libmatroska v1.3.0
Видео
Идентификатор : 1
Формат : AVC
Формат/Информация : Advanced Video Codec
Профиль формата : High@L4.1
Параметр CABAC формата : Да
Параметр ReFrames формата : 15 кадров
Идентификатор кодека : V_MPEG4/ISO/AVC
Продолжительность : 1 ч. 5 м.
Битрейт : 2800 Кбит/сек
Ширина : 704 пикселя
Высота : 568 пикселей
Соотношение сторон : 4:3
Соотношение сторон в оригинале : 4:3
Режим частоты кадров : Постоянный
Частота кадров : 25,000 кадров/сек
Цветовое пространство : YUV
Субдискретизация насыщенности : 4:2:0
Битовая глубина : 8 бит
Тип развёртки : Прогрессивная
Бит/(Пиксели*Кадры) : 0.280
Размер потока : 1,26 Гбайт (92%)
Библиотека кодирования : x264 core 142 r2431 ac76440
Настройки программы : cabac=1 / ref=15 / deblock=1:-2:-2 / analyse=0x3:0x133 / me=umh / subme=10 / psy=1 / psy_rd=1.10:0.10 / mixed_ref=1 / me_range=24 / chroma_me=1 / trellis=2 / 8x8dct=1 / cqm=0 / deadzone=21,11 / fast_pskip=0 / chroma_qp_offset=-3 / threads=12 / lookahead_threads=2 / sliced_threads=0 / nr=0 / decimate=0 / interlaced=0 / bluray_compat=0 / constrained_intra=0 / bframes=7 / b_pyramid=2 / b_adapt=2 / b_bias=0 / direct=3 / weightb=1 / open_gop=0 / weightp=2 / keyint=250 / keyint_min=25 / scenecut=40 / intra_refresh=0 / rc=2pass / mbtree=0 / bitrate=2800 / ratetol=1.0 / qcomp=0.65 / qpmin=0 / qpmax=39 / qpstep=4 / cplxblur=20.0 / qblur=0.5 / ip_ratio=1.40 / pb_ratio=1.30 / aq=1:1.00
Язык : English
Default : Да
Forced : Нет
Основные цвета : BT.601 PAL
Характеристики трансфера : BT.470 System B, BT.470 System G
Коэффициенты матрицы : BT.601
Аудио
Идентификатор : 2
Формат : AC-3
Формат/Информация : Audio Coding 3
Расширение режима : CM (complete main)
Параметр Endianness формата : Big
Идентификатор кодека : A_AC3
Продолжительность : 1 ч. 5 м.
Вид битрейта : Постоянный
Битрейт : 192 Кбит/сек
Каналы : 2 канала
Расположение каналов : Front: L R
Частота : 48,0 КГц
Битовая глубина : 16 бит
Метод сжатия : С потерями
Размер потока : 90,6 Мбайт (6%)
Язык : Russian
Default : Да
Forced : Нет

[Цитировать]



Показать сообщения:    

Текущее время: 10-Дек 10:02

Часовой пояс: UTC + 3


Вы не можете начинать темы
Вы не можете отвечать на сообщения
Вы не можете редактировать свои сообщения
Вы не можете удалять свои сообщения
Вы не можете голосовать в опросах
Вы не можете прикреплять файлы к сообщениям
Вы не можете скачивать файлы

!ВНИМАНИЕ!
Сайт не предоставляет электронные версии произведений, а занимается лишь коллекционированием и каталогизацией ссылок, присылаемых и публикуемых на форуме нашими читателями. Если вы являетесь правообладателем какого-либо представленного материала и не желаете, чтобы ссылка на него находилась в нашем каталоге, свяжитесь с нами, и мы незамедлительно удалим ее. Файлы для обмена на трекере предоставлены пользователями сайта, и администрация не несет ответственности за их содержание. Просьба не заливать файлы, защищенные авторскими правами, а также файлы нелегального содержания!