[ Сегодня идет свободное скачивание без начисления Download ]


Статистика раздачи
Нет
 
   
 
Top  
 
 
Хоттабыч / }{отт@бь)ч Информация о фильме
Название: Хоттабыч / }{отт@бь)ч
Год выхода: 2006
Жанр: фантастика, фэнтези, комедия, приключения
Режиссер: Петр Точилин
В ролях: Владимир Толоконников, Марюс Ямпольскис, Лива Круминя, Марк Гейхман, Юлия Паранова, Мила Липнер, Григорий Скряпкин, Иван Губанов, Александр Овчинников, Юрий Думчев
О фильме:
Гена — программист по призванию и хакер по жизни. Он хороший парень. Но у него реальные проблемы. Его бросила любимая девушка, его «пасут» бандиты и выслеживают спецслужбы. Спасти его может только чудо, и оно, конечно же, случается. В жизни Гены появляется Хоттабыч, джин, который отмотал несколько тысяч лет заключения в одиночном кувшине.
И теперь готов исполнить три любых желания своего освободителя. Но у самого Хоттабыча тоже проблемы. За ним охотится его давний враг — Шайтаныч. Спасаясь от своих врагов, Гена и Хоттабыч летают на потраченном говорящей молью ковре-самолете над Красной площадью, путешествуют по сетям Мировой Паутины и практикуют магию: превращают людей в вещи, а вещи в людей…

Страна: Россия
Студия: Кинокомпания CTB
Продолжительность: 01:31:35
Перевод: Оригинальный
Файл
Формат: Matroska
Видео: 1920x1072 at 25.000 fps, MPEG-4 AVC, ~4700 kbps avg
Аудио: 48 kHz, AC3, 3/2 (L,C,R,l,r) + LFE ch, ~448.00 kbps avg
Субтитры: нет

MI

Общее
Уникальный идентификатор : 249759506638553384639362170403237219306 (0xBBE5EE67E93C921B9FBC8AA054B94BEA)
Полное имя : XOTTABbI4_WEB_DL_1080p-BLUEBIRD.mkv
Формат : Matroska
Версия формата : Version 4 / Version 2
Размер файла : 3,38 Гбайт
Продолжительность : 1 ч. 31 м.
Общий поток : 5292 Кбит/сек
Название фильма : XOTTABbI4_WEB_DL_1080p-BLUEBIRD
Дата кодирования : UTC 2015-06-01 22:33:35
Программа кодирования : mkvmerge v7.1.0 ('Good Love') 64bit built on Jul 27 2014 13:06:55
Библиотека кодирования : libebml v1.3.0 + libmatroska v1.4.1
DURATION : 01:31:34.784000000
NUMBER_OF_FRAMES : 171712
NUMBER_OF_BYTES : 307707904
_STATISTICS_WRITING_APP : mkvmerge v7.1.0 ('Good Love') 64bit built on Jul 27 2014 13:06:55
_STATISTICS_WRITING_DATE_UTC : 2015-06-01 22:33:35
_STATISTICS_TAGS : BPS DURATION NUMBER_OF_FRAMES NUMBER_OF_BYTES
Видео
Идентификатор : 1
Формат : AVC
Формат/Информация : Advanced Video Codec
Профиль формата : High@L4.0
Параметр CABAC формата : Да
Параметр ReFrames формата : 4 кадра
Идентификатор кодека : V_MPEG4/ISO/AVC
Продолжительность : 1 ч. 31 м.
Битрейт : 4738 Кбит/сек
Ширина : 1920 пикселей
Высота : 1072 пикселя
Соотношение сторон : 16:9
Режим частоты кадров : Постоянный
Частота кадров : 25,000 кадров/сек
Цветовое пространство : YUV
Субдискретизация насыщенности : 4:2:0
Битовая глубина : 8 бит
Тип развёртки : Прогрессивная
Бит/(Пиксели*Кадры) : 0.092
Размер потока : 3,03 Гбайт (90%)
Заголовок : XOTTABbI4_WEB_DL_1080p-BLUEBIRD
Язык : Russian
Default : Да
Forced : Нет
Основные цвета : BT.709
Характеристики трансфера : BT.709
Коэффициенты матрицы : BT.709
Аудио
Идентификатор : 2
Формат : AC-3
Формат/Информация : Audio Coding 3
Расширение режима : CM (complete main)
Параметр Endianness формата : Big
Идентификатор кодека : A_AC3
Продолжительность : 1 ч. 31 м.
Вид битрейта : Постоянный
Битрейт : 448 Кбит/сек
Каналы : 6 каналов
Расположение каналов : Front: L C R, Side: L R, LFE
Частота : 48,0 КГц
Битовая глубина : 16 бит
Метод сжатия : С потерями
Размер потока : 293 Мбайт (8%)
Заголовок : DD 5.1 @ 448 kbps [DVD]
Язык : Russian
Default : Да
Forced : Нет
Меню
00:00:00.000 : en:Глава 1
00:06:17.000 : en:Глава 2
00:10:47.000 : en:Глава 3
00:15:27.000 : en:Глава 4
00:22:14.000 : en:Глава 5
00:27:25.000 : en:Глава 6
00:33:29.000 : en:Глава 7
00:38:42.000 : en:Глава 8
00:44:21.000 : en:Глава 9
00:49:45.000 : en:Глава 10
00:55:58.000 : en:Глава 11
01:01:16.000 : en:Глава 12
01:05:53.000 : en:Глава 13
01:12:01.000 : en:Глава 14
01:17:03.000 : en:Глава 15
01:21:28.000 : en:Глава 16
01:25:42.000 : en:Глава 17

Скриншоты

[Цитировать]



Показать сообщения:    

Текущее время: 08-Дек 05:08

Часовой пояс: UTC + 3


Вы не можете начинать темы
Вы не можете отвечать на сообщения
Вы не можете редактировать свои сообщения
Вы не можете удалять свои сообщения
Вы не можете голосовать в опросах
Вы не можете прикреплять файлы к сообщениям
Вы не можете скачивать файлы

!ВНИМАНИЕ!
Сайт не предоставляет электронные версии произведений, а занимается лишь коллекционированием и каталогизацией ссылок, присылаемых и публикуемых на форуме нашими читателями. Если вы являетесь правообладателем какого-либо представленного материала и не желаете, чтобы ссылка на него находилась в нашем каталоге, свяжитесь с нами, и мы незамедлительно удалим ее. Файлы для обмена на трекере предоставлены пользователями сайта, и администрация не несет ответственности за их содержание. Просьба не заливать файлы, защищенные авторскими правами, а также файлы нелегального содержания!