[ Сегодня идет свободное скачивание без начисления Download ]


Статистика раздачи
Нет
 
   
 
Top  
 
 
Губка Боб в 3D / The SpongeBob Movie: Sponge Out of Water (2015) Информация о фильме
Название: Губка Боб в 3D
Оригинальное название: The SpongeBob Movie: Sponge Out of Water
Год выпуска: 2015
Жанр: Мультфильм, комедия, приключения, семейный, полнометражный
Выпущено: США, Nickelodeon Movies, Paramount Animation, United Plankton Pictures
Режиссер: Пол Тиббит
В ролях: Антонио Бандерас, Том Кенни, Эрик Бауза, Тим Конуэй, Эдди Дизен, Роб Полсен, Кевин Майкл Ричардсон, Эйприл Стюарт, Кри Саммер, Билли Уэст, Карлос Аласраки, Нолан Норт, Пол Тиббит, Билл Фагербакки, Роджер Бампасс, Мистер Лоуренс, Джилл Тэлли, Ди Брэдли Бэйкер, Клэнси Браун, Кэролин Лоуренс
О фильме: Коварный пират Бургер-Борода наконец-то нашёл волшебную книгу, способную исполнить любое его желание. Однако в книге не хватает последней страницы, которая хранится глубоко под водой, на морском дне, под присмотром знаменитого Губки Боба. Чтобы завладеть последней страницей волшебной книги, Бургер-Борода готов разрушить мир Губки Боба и его друзей. Для спасения своего подводного мира Губка Боб и его команда отправляются в мир людей, где их ждут невероятные приключения.
Релиз: BDRip (by Ash61)
Контейнер: MKV
Формат 3D: Half OverUnder / Вертикальная анаморфная стереопара
Порядок ракурсов: левый ракурс первый
Файл
Качество: BDRip (1080p)
Видео: MPEG-4 AVC 10700 Кбит/с, 1920x1080, 23.976 кадр/с
Аудио: Русский, украинский (AC3, 6 ch, 640 Кбит/с), английский (DTS, 6 ch, 1510 Кбит/с)
Продолжительность: 01:32:54
Перевод: Дублированный [лицензия]
Субтитры: Русские, английские

MI

Общее
Уникальный идентификатор : 210077876727525561121948946071285410049 (0x9E0B870008F207D599DCE9F291DC2901)
Полное имя : D:TheSpongeBobMovie(2015)3D-halfOU.mkv
Формат : Matroska
Версия формата : Version 2
Размер файла : 8,89 Гбайт
Продолжительность : 1 ч. 32 м.
Общий поток : 13,7 Мбит/сек
Название фильма : Губка Боб в 3D / The SpongeBob Movie: Sponge Out of Water (2015) 3D
Дата кодирования : UTC 2015-06-04 00:10:00
Программа кодирования : mkvmerge v7.9.0 ('Birds') 64bit
Библиотека кодирования : libebml v1.3.1 + libmatroska v1.4.2
DURATION : 01:32:08.022000000
NUMBER_OF_FRAMES : 1777
NUMBER_OF_BYTES : 46914
_STATISTICS_WRITING_APP : mkvmerge v7.9.0 ('Birds') 32bit
_STATISTICS_WRITING_DATE_UTC : 2015-05-23 07:09:37
_STATISTICS_TAGS : BPS DURATION NUMBER_OF_FRAMES NUMBER_OF_BYTES
Видео
Идентификатор : 1
Формат : AVC
Формат/Информация : Advanced Video Codec
Профиль формата : High@L4.1
Параметр CABAC формата : Да
Параметр ReFrames формата : 4 кадра
Идентификатор кодека : V_MPEG4/ISO/AVC
Продолжительность : 1 ч. 32 м.
Битрейт : 10,7 Мбит/сек
Ширина : 1920 пикселей
Высота : 1080 пикселей
Соотношение сторон : 16:9
Режим частоты кадров : Постоянный
Частота кадров : 23,976 кадра/сек
Цветовое пространство : YUV
Субдискретизация насыщенности : 4:2:0
Битовая глубина : 8 бит
Тип развёртки : Прогрессивная
Бит/(Пиксели*Кадры) : 0.215
Размер потока : 6,91 Гбайт (78%)
Заголовок : BDRip by Ash61
Библиотека кодирования : x264 core 138 r2358 9e941d1
Настройки программы : cabac=1 / ref=4 / deblock=1:-3:-3 / analyse=0x3:0x113 / me=umh / subme=10 / psy=1 / psy_rd=1.00:0.00 / mixed_ref=1 / me_range=32 / chroma_me=1 / trellis=2 / 8x8dct=1 / cqm=0 / deadzone=21,11 / fast_pskip=1 / chroma_qp_offset=-2 / threads=12 / lookahead_threads=3 / sliced_threads=0 / nr=0 / decimate=1 / interlaced=0 / bluray_compat=0 / constrained_intra=0 / bframes=11 / b_pyramid=2 / b_adapt=2 / b_bias=0 / direct=3 / weightb=1 / open_gop=0 / weightp=2 / keyint=250 / keyint_min=23 / scenecut=40 / intra_refresh=0 / rc_lookahead=60 / rc=crf / mbtree=1 / crf=15.0 / qcomp=0.70 / qpmin=10 / qpmax=51 / qpstep=4 / vbv_maxrate=40000 / vbv_bufsize=30000 / crf_max=0.0 / nal_hrd=none / frame-packing=4 / ip_ratio=1.40 / aq=1:0.70
Язык : English
Default : Да
Forced : Нет
Аудио #1
Идентификатор : 2
Формат : AC-3
Формат/Информация : Audio Coding 3
Расширение режима : CM (complete main)
Параметр Endianness формата : Big
Идентификатор кодека : A_AC3
Продолжительность : 1 ч. 32 м.
Вид битрейта : Постоянный
Битрейт : 640 Кбит/сек
Каналы : 6 каналов
Расположение каналов : Front: L C R, Side: L R, LFE
Частота : 48,0 КГц
Метод сжатия : С потерями
Размер потока : 424 Мбайт (5%)
Язык : Russian
Default : Да
Forced : Нет
Аудио #2
Идентификатор : 3
Формат : AC-3
Формат/Информация : Audio Coding 3
Расширение режима : CM (complete main)
Параметр Endianness формата : Big
Идентификатор кодека : A_AC3
Продолжительность : 1 ч. 32 м.
Вид битрейта : Постоянный
Битрейт : 640 Кбит/сек
Каналы : 6 каналов
Расположение каналов : Front: L C R, Side: L R, LFE
Частота : 48,0 КГц
Метод сжатия : С потерями
Размер потока : 424 Мбайт (5%)
Язык : Ukrainian
Default : Нет
Forced : Нет
Аудио #3
Идентификатор : 4
Формат : DTS
Формат/Информация : Digital Theater Systems
Режим : 16
Параметр Endianness формата : Big
Идентификатор кодека : A_DTS
Продолжительность : 1 ч. 32 м.
Вид битрейта : Постоянный
Битрейт : 1509 Кбит/сек
Каналы : 6 каналов
Расположение каналов : Front: L C R, Side: L R, LFE
Частота : 48,0 КГц
Битовая глубина : 24 бит
Метод сжатия : С потерями
Размер потока : 999 Мбайт (11%)
Заголовок : English DTS 5.1 @ 1509 Kbps
Язык : English
Default : Нет
Forced : Нет
Текст #1
Идентификатор : 5
Формат : UTF-8
Идентификатор кодека : S_TEXT/UTF8
Идентификатор кодека/Информация : UTF-8 Plain Text
Заголовок : Форсированные
Язык : Russian
Default : Да
Forced : Нет
Текст #2
Идентификатор : 6
Формат : UTF-8
Идентификатор кодека : S_TEXT/UTF8
Идентификатор кодека/Информация : UTF-8 Plain Text
Заголовок : Полные
Язык : Russian
Default : Нет
Forced : Нет
Текст #3
Идентификатор : 7
Формат : UTF-8
Идентификатор кодека : S_TEXT/UTF8
Идентификатор кодека/Информация : UTF-8 Plain Text
Язык : English
Default : Нет
Forced : Нет
Текст #4
Идентификатор : 8
Формат : UTF-8
Идентификатор кодека : S_TEXT/UTF8
Идентификатор кодека/Информация : UTF-8 Plain Text
Заголовок : SDH
Язык : English
Default : Нет
Forced : Нет
Меню
00:00:00.000 : en:00:00:00.000
00:03:40.387 : en:00:03:40.387
00:06:22.173 : en:00:06:22.173
00:12:29.999 : en:00:12:29.999
00:18:21.600 : en:00:18:21.600
00:22:52.079 : en:00:22:52.079
00:30:14.688 : en:00:30:14.688
00:35:37.886 : en:00:35:37.886
00:39:50.972 : en:00:39:50.972
00:43:13.424 : en:00:43:13.424
00:50:54.510 : en:00:50:54.510
00:55:16.396 : en:00:55:16.396
01:00:03.099 : en:01:00:03.099
01:04:19.355 : en:01:04:19.355
01:10:16.587 : en:01:10:16.587
01:16:20.367 : en:01:16:20.367
01:20:29.491 : en:01:20:29.491
01:23:30.839 : en:01:23:30.839

Скриншоты

[Цитировать]



Показать сообщения:    

Текущее время: 03-Дек 01:19

Часовой пояс: UTC + 3


Вы не можете начинать темы
Вы не можете отвечать на сообщения
Вы не можете редактировать свои сообщения
Вы не можете удалять свои сообщения
Вы не можете голосовать в опросах
Вы не можете прикреплять файлы к сообщениям
Вы не можете скачивать файлы

!ВНИМАНИЕ!
Сайт не предоставляет электронные версии произведений, а занимается лишь коллекционированием и каталогизацией ссылок, присылаемых и публикуемых на форуме нашими читателями. Если вы являетесь правообладателем какого-либо представленного материала и не желаете, чтобы ссылка на него находилась в нашем каталоге, свяжитесь с нами, и мы незамедлительно удалим ее. Файлы для обмена на трекере предоставлены пользователями сайта, и администрация не несет ответственности за их содержание. Просьба не заливать файлы, защищенные авторскими правами, а также файлы нелегального содержания!