[ Сегодня идет свободное скачивание без начисления Download ]


Статистика раздачи
Нет
 
   
 
Top  
 
 
Пчёлка Майя / Maya The Bee – Movie
«Невероятно сладкая история»
Русское название: Пчёлка Майя
Оригинальное название: Maya The Bee – Movie
Год выпуска: 2014
Жанр: мультфильм, фэнтези, приключения
Выпущено: Австралия, Германия
Режиссер: Алекс Стадерманн
В ролях: Коко Джек Гиллис , Нина Шаттон , Коди Смит-МакФи , Ноа Тейлор , Мириам Маргулис , Ричард Роксбург , Джеки Уивер , Джастин Кларк , Энди МакФи , Косма Шива Хаген , Нина Хаген , Константин фон Ящерофф
Перевод: Дублированный - [Лицензия]

Сюжет фильма:
Легендарная пчелка доросла до большого экрана.

Качество: BDRip 1080p
Формат: AVC (библиотека кодирования x.264)
Контейнер (Расширение): MKV
Видео: 1920x1040, 8110 Кбит/сек, 23,976 кадр/сек, 0,169 Бит/[Пиксели*Кадры]
Аудио №1: русский / AC3 / 5.1 / 48 kHz / 640 kbps / |Дублированный|
Аудио №2: английский / AC3 / 5.1 / 48 kHz / 640 kbps /
Навигация по главам(Чаптеры): есть
Продолжительность: 01:27:46

MediaInfo

Format : Matroska
Format version : Version 2
File size : 5.76 GiB
Duration : 1h 27mn
Overall bit rate : 9 391 Kbps
Movie name : Pchjolka majja.(2014).BDRip.1080p.[denis100]
Encoded date : UTC 2015-06-06 09:36:38
Writing application : mkvmerge v5.8.0 ('No Sleep / Pillow') built on Sep 2 2012 15:37:04
Writing library : libebml v1.2.3 + libmatroska v1.3.0
Video
ID : 1
Format : AVC
Format/Info : Advanced Video Codec
Format profile : High@L4.1
Format settings, CABAC : Yes
Format settings, ReFrames : 4 frames
Codec ID : V_MPEG4/ISO/AVC
Duration : 1h 27mn
Bit rate : 8 110 Kbps
Width : 1 920 pixels
Height : 1 040 pixels
Display aspect ratio : 16:9
Frame rate : 23.976 fps
Color space : YUV
Chroma subsampling : 4:2:0
Bit depth : 8 bits
Scan type : Progressive
Bits/(Pixel*Frame) : 0.169
Stream size : 4.86 GiB (84%)
Title : Pchjolka majja.(2014).BDRip.1080p.[denis100]
Writing library : x264 core 146 r2538 121396c
Encoding settings : cabac=1 / ref=4 / deblock=1:0:0 / analyse=0x3:0x133 / me=umh / subme=10 / psy=1 / psy_rd=1.00:0.00 / mixed_ref=1 / me_range=32 / chroma_me=1 / trellis=2 / 8x8dct=1 / cqm=0 / deadzone=21,11 / fast_pskip=0 / chroma_qp_offset=-2 / threads=6 / lookahead_threads=1 / sliced_threads=0 / nr=0 / decimate=1 / interlaced=0 / bluray_compat=0 / constrained_intra=0 / bframes=6 / b_pyramid=2 / b_adapt=2 / b_bias=0 / direct=3 / weightb=1 / open_gop=0 / weightp=2 / keyint=240 / keyint_min=23 / scenecut=40 / intra_refresh=0 / rc=2pass / mbtree=0 / bitrate=8110 / ratetol=1.0 / qcomp=0.60 / qpmin=0 / qpmax=69 / qpstep=4 / cplxblur=20.0 / qblur=0.5 / ip_ratio=1.40 / pb_ratio=1.30 / aq=2:1.00
Language : English
Default : Yes
Forced : No
Audio #1
ID : 2
Format : AC-3
Format/Info : Audio Coding 3
Mode extension : CM (complete main)
Codec ID : A_AC3
Duration : 1h 27mn
Bit rate mode : Constant
Bit rate : 640 Kbps
Channel(s) : 6 channels
Channel positions : Front: L C R, Side: L R, LFE
Sampling rate : 48.0 KHz
Bit depth : 16 bits
Compression mode : Lossy
Stream size : 402 MiB (7%)
Title : Дублированный
Language : Russian
Default : Yes
Forced : No
Audio #2
ID : 3
Format : AC-3
Format/Info : Audio Coding 3
Mode extension : CM (complete main)
Codec ID : A_AC3
Duration : 1h 27mn
Bit rate mode : Constant
Bit rate : 640 Kbps
Channel(s) : 6 channels
Channel positions : Front: L C R, Side: L R, LFE
Sampling rate : 48.0 KHz
Bit depth : 16 bits
Compression mode : Lossy
Stream size : 402 MiB (7%)
Language : English
Default : No
Forced : No
Menu
00:00:00.000 : en:Chapter 01
00:07:40.376 : en:Chapter 02
00:15:29.345 : en:Chapter 03
00:22:53.830 : en:Chapter 04
00:28:14.067 : en:Chapter 05
00:33:11.072 : en:Chapter 06
00:42:11.278 : en:Chapter 07
00:48:23.567 : en:Chapter 08
00:55:01.047 : en:Chapter 09
01:00:13.985 : en:Chapter 10
01:06:25.064 : en:Chapter 11
01:18:10.268 : en:Chapter 12
01:27:46.761 : en:Chapter 13

x264

x264 [info]: frame I:1371 Avg QP:11.45 size:171674
x264 [info]: frame P:38799 Avg QP:13.96 size: 69697
x264 [info]: frame B:86107 Avg QP:15.93 size: 27856

Скриншоты

[Цитировать]



Показать сообщения:    

Текущее время: 09-Дек 20:20

Часовой пояс: UTC + 3


Вы не можете начинать темы
Вы не можете отвечать на сообщения
Вы не можете редактировать свои сообщения
Вы не можете удалять свои сообщения
Вы не можете голосовать в опросах
Вы не можете прикреплять файлы к сообщениям
Вы не можете скачивать файлы

!ВНИМАНИЕ!
Сайт не предоставляет электронные версии произведений, а занимается лишь коллекционированием и каталогизацией ссылок, присылаемых и публикуемых на форуме нашими читателями. Если вы являетесь правообладателем какого-либо представленного материала и не желаете, чтобы ссылка на него находилась в нашем каталоге, свяжитесь с нами, и мы незамедлительно удалим ее. Файлы для обмена на трекере предоставлены пользователями сайта, и администрация не несет ответственности за их содержание. Просьба не заливать файлы, защищенные авторскими правами, а также файлы нелегального содержания!