[ Today is free to download without increasing Download ]

DL-List and Torrent activity
Информация о фильме
Название: Красивая и Безумная
Оригинальное название: Beautiful & Twisted
Год выхода: 2015
Жанр: триллер, драма, криминал
Режиссер: Кристофер Залла
В ролях: Роб Лоу, Пас Вега, Кэндис Берген, Сейшелл Гэбриел, Джуд Чикколелла, Мишель Херд, Уолтер ФонтЛеРой, Сони Брингас, Zachary Rifkin, Austin Wakefield--О фильме: В июле 2009 года Бен Новак, унаследовавший сеть отелей Fontainebleau, был жестоко убит в номере отеля в пригороде Нью-Йорка. Своими ужасающими садистскими деталями страшное убийство вызвало мгновенный интерес средств массовой информации. Говорили, что зверское убийство было спланировано женщиной, пытавшейся уничтожить своего мужа и завладеть его состоянием.--Выпущено: США / PeaceOut Productions, Silver Screen Pictures, Sony Pictures Television
Продолжительность: 01:26:15
Озвучивание: Профессиональное (многоголосое) [iTunes]--Файл
Формат: AVI (XviD)
Качество: WEB-DLRip
Видео: XviD, 1002 Кбит/с, 720х400
Аудио: MP3, 2 ch, 128 Кбит/с
Размер: 703 MB---

Media Info

Complete name : E:KPaC1BaYa.i.be3umHaYa.2015.P.WEB-DLRip.700Mb.avi
Format : AVI
Format/Info : Audio Video Interleave
File size : 703 MiB
Duration : 1h 26mn
Overall bit rate : 1 139 Kbps
Movie name : Krasivaja i bezumnaja.2015.P.WEB-DLRip.ELEKTRI4KA.Uniongang.tv.700Mb
Director : Дракоша
Writing application : VirtualDubMod | www.virtualdub-fr.org || (build 2550/release)
ID : 0
Format : MPEG-4 Visual
Format profile : Advanced Simple@L5
Format settings, BVOP : 3
Format settings, QPel : No
Format settings, GMC : No warppoints
Format settings, Matrix : Default (H.263)
Codec ID : XVID
Codec ID/Hint : XviD
Duration : 1h 26mn
Bit rate : 1 002 Kbps
Width : 720 pixels
Height : 400 pixels
Display aspect ratio : 16:9
Frame rate : 23.976 fps
Color space : YUV
Chroma subsampling : 4:2:0
Bit depth : 8 bits
Scan type : Progressive
Compression mode : Lossy
Bits/(Pixel*Frame) : 0.145
Stream size : 618 MiB (88%)
Writing library : XviD 73
ID : 1
Format : MPEG Audio
Format version : Version 1
Format profile : Layer 3
Codec ID : 55
Codec ID/Hint : MP3
Duration : 1h 26mn
Bit rate mode : Constant
Bit rate : 128 Kbps
Channel(s) : 2 channels
Sampling rate : 48.0 KHz
Compression mode : Lossy
Stream size : 79.0 MiB (11%)
Alignment : Aligned on interleaves
Interleave, duration : 42 ms (1.00 video frame)
Interleave, preload duration : 504 ms
Writing library : LAME3.99r
Encoding settings : -m s -V 4 -q 2 -lowpass 17 -b 128




Топик был перенесен из форума Новинки кинопроката в форум Триллер

Display posts:    

Current time is: 24-Oct 18:59

All times are UTC + 3

You cannot post new topics in this forum
You cannot reply to topics in this forum
You cannot edit your posts in this forum
You cannot delete your posts in this forum
You cannot vote in polls in this forum
You cannot attach files in this forum
You cannot download files in this forum

The site does not give electronic versions of products, and is engaged only in a collecting and cataloguing of the references sent and published at a forum by our readers. If you are the legal owner of any submitted material and do not wish that the reference to it was in our catalogue, contact us and we shall immediately remove her. Files for an exchange on tracker are given by users of a site, and the administration does not bear the responsibility for their maintenance. The request to not fill in the files protected by copyrights, and also files of the illegal maintenance!