[ Сегодня идет свободное скачивание без начисления Download ]


Статистика раздачи
Нет
 
   
 
Top  
 
 
-СашаТаня (2015) WEB-DLRip [H.264/720p-LQ] (сезон 3, серии 1-15 из 15)- Производство: "Comedy Club Production", Россия
Жанр: комедия, ситком
Режиссер: Михаил Старчак
Актеры: Андрей Гайдулян, Валентина Рубцова, Алексей Климушкин, Елена Бирюкова, Татьяна Орлова, Андрей Лебедев, Ксения Хаирова, Олег Новиков, Сергей Рудзевич, Сергей Мурзин, Андрей Свиридов, Павел Кассинский, Виталий Гогунский, Арарат Кещян, Ёлка, Алексей Гаврилов, Лариса Баранова
Описание:
Сериал про молодую семью Сергеевых. После окончания института Саша и Таня вместе со своим маленьким сыном Алёшкой решили пожить самостоятельно и сняли квартиру в Южном Бутово. Райончик конечно не из лучших, но зато и цены на жилье тут доступные, ведь Саша не собирается пользоваться миллиардами своего папы. Но Сильвестр Андреевич не собирается так просто отставать от молодых и тем более от своего внука. Поэтому он поселился по соседству, только в просторной и роскошной квартире.

Дата российской премьеры: 18.05.2015
Продолжительность: ~ 00:22:00 серия
Качество видео: WEB-DLRip
Видео: AVC/H.264, 1280x720 (16:9), ~3000 Kbps
Аудио: AC3, 2 ch, 192 Kbps

MediaInfo:

Общее
Уникальный идентификатор                 : 221608785028085049407493511534898459327 (0xA6B84CAC31E79E95B93C2E0D23CA32BF)
Полное имя                               : E:\DOWNLOADS\СашаТаня (3 сезон) 2015 WEB-DLRip 720\СашаТаня 3 - 01 серия.mkv
Формат                                   : Matroska
Версия формата                           : Version 2
Размер файла                             : 488 Мбайт
Продолжительность                        : 21 м.
Общий поток                              : 3126 Кбит/сек
Дата кодирования                         : UTC 2015-05-20 17:52:17
Программа кодирования                    : mkvmerge v7.8.0 ("River Man") 32bit built on Apr  3 2015 12:11:22
Библиотека кодирования                   : libebml v1.3.1 + libmatroska v1.4.2
Видео
Идентификатор                            : 1
Формат                                   : AVC
Формат/Информация                        : Advanced Video Codec
Профиль формата                          : [url=mailto:High@L4.0]High@L4.0[/url]
Параметр CABAC формата                   : Да
Параметр ReFrames формата                : 8 кадров
Идентификатор кодека                     : V_MPEG4/ISO/AVC
Продолжительность                        : 21 м.
Битрейт                                  : 2871 Кбит/сек
Ширина                                   : 1280 пикселей
Высота                                   : 720 пикселей
Соотношение сторон                       : 16:9
Режим частоты кадров                     : Постоянный
Частота кадров                           : 25,000 кадров/сек
Цветовое пространство                    : YUV
Субдискретизация насыщенности            : 4:2:0
Битовая глубина                          : 8 бит
Тип развёртки                            : Прогрессивная
Бит/(Пиксели*Кадры)                      : 0.125
Размер потока                            : 448 Мбайт (92%)
Библиотека кодирования                   : x264 core 142 r2455 021c0dc
Настройки программы                      : cabac=1 / ref=8 / deblock=1:-1:-1 / analyse=0x3:0x133 / me=umh / subme=9 / psy=1 / psy_rd=1.00:0.15 / mixed_ref=1 / me_range=16 / chroma_me=1 / trellis=2 / 8x8dct=1 / cqm=0 / deadzone=21,11 / fast_pskip=1 / chroma_qp_offset=-3 / threads=24 / lookahead_threads=2 / sliced_threads=0 / nr=0 / decimate=1 / interlaced=0 / bluray_compat=0 / constrained_intra=0 / bframes=3 / b_pyramid=2 / b_adapt=2 / b_bias=0 / direct=3 / weightb=1 / open_gop=0 / weightp=2 / keyint=100 / keyint_min=10 / scenecut=40 / intra_refresh=0 / rc_lookahead=60 / rc=crf / mbtree=1 / crf=17.0 / qcomp=0.60 / qpmin=0 / qpmax=69 / qpstep=4 / vbv_maxrate=3600 / vbv_bufsize=3600 / crf_max=0.0 / nal_hrd=none / filler=0 / ip_ratio=1.40 / aq=1:1.00
Default                                  : Да
Forced                                   : Нет
Аудио
Идентификатор                            : 2
Формат                                   : AC-3
Формат/Информация                        : Audio Coding 3
Расширение режима                        : CM (complete main)
Параметр Endianness формата              : Big
Идентификатор кодека                     : A_AC3
Продолжительность                        : 21 м.
Вид битрейта                             : Постоянный
Битрейт                                  : 192 Кбит/сек
Каналы                                   : 2 канала
Расположение каналов                     : Front: L R
Частота                                  : 44,1 КГц
Битовая глубина                          : 16 бит
Метод сжатия                             : С потерями
Размер потока                            : 30,0 Мбайт (6%)
Default                                  : Да
Forced                                   : Нет

Краткое описание серий:

1 серия
Таня и Саша задумываются о втором ребенке, только вот мысли на этот счет у них совершенно разные…
2 серия
Саша вынужден уволить сотрудницу своего отдела, но сделать это не так просто, ведь эта сотрудница оказывается самой настоящей колдуньей…
3 серия
Маленький ребенок и отказ Евы от прислуги доводят Сильвестра Андреевича до крайней степени усталости. Как взбодрит себя олигарх и будет ли этот способ законным?
4 серия
Деловые переговоры - это то, в чем Сильвестру Андреевичу нет равных. Скоро в этом убедится и Ева.
5 серия
Корпоратив – священное слово для любого менеджера, в том числе и для Саши. Но что делать, если на следующий день после праздника ты ничего не помнишь, а коллеги смотрят на тебя с улыбкой?
6 серия
Гоша узнает то, что изменит его жизнь навсегда… Какая новость может превратить Гошу в Григория?
7 серия
Впервые за все время службы Гена берет отпуск. Как Сильвестр Андреевич будет чувствовать себя без верного охранника?
8 серия
Для Саши роман с дочерью генерального директора - самый простой способ построить карьеру. Но как к этому отнесется Таня?
9 серия
Все готово к самому важному дню в жизни Гоши и Лили… кроме самих Гоши и Лили. Что делать если на пороге ЗАГСа появляются сомнения?
10 серия
Стать популярной, раздавать автографы, петь на сцене – мечта любой домохозяйки и Таня с Евой не исключение. Можно ли доверять «продюсеру», с которым вы познакомились в караоке?
11 серия
Дети быстро учатся, к сожалению, плохому они учатся в два раза быстрее…
12 серия
Лиля подозревает Сашу в определенных «наклонностях». Поделится ли она своими подозрениями с Таней?
13 серия
Ева не может найти общий язык с Сильвестром Андреевичем и идет за советом к Тане. Могут ли общие с мужем интересы привести к семейному скандалу?
14 серия
Затянувшийся до ночи субботник в Лешкином детском саду приводит к неожиданным последствиям для Саши и Тани. Смогут ли наши герои замять неловкую ситуацию, или все-таки прославятся на весь детский сад?
15 серия
Сильвестр Андреевич хочет, чтобы Ева была раскованнее. А Ева хочет, чтобы Сильвестр выключил свет. Сможет ли Ева победить свои комплексы и как в этом ей помогут советы Тани?
Скриншоты:

[Цитировать]



Показать сообщения:    

Текущее время: 10-Дек 08:07

Часовой пояс: UTC + 3


Вы не можете начинать темы
Вы не можете отвечать на сообщения
Вы не можете редактировать свои сообщения
Вы не можете удалять свои сообщения
Вы не можете голосовать в опросах
Вы не можете прикреплять файлы к сообщениям
Вы не можете скачивать файлы

!ВНИМАНИЕ!
Сайт не предоставляет электронные версии произведений, а занимается лишь коллекционированием и каталогизацией ссылок, присылаемых и публикуемых на форуме нашими читателями. Если вы являетесь правообладателем какого-либо представленного материала и не желаете, чтобы ссылка на него находилась в нашем каталоге, свяжитесь с нами, и мы незамедлительно удалим ее. Файлы для обмена на трекере предоставлены пользователями сайта, и администрация не несет ответственности за их содержание. Просьба не заливать файлы, защищенные авторскими правами, а также файлы нелегального содержания!