[ Сегодня идет свободное скачивание без начисления Download ]


Статистика раздачи
Нет
 
   
 
Top  
 
 
-Выпускной экзамен / ? toute ?preuve (2014) BDRip [H.264/720p]«Ради диплома они готовы на всё!»- Производство: Франция
Жанр: Комедия
Режиссер: Антуан Блоссер
Продюсер: Эрик Йехельманн, Филипп Руссле, Фабрис Джанферми
Актеры: Марк Лавуан, Валери Карсенти, Тома Соливерес, Сами Сегир, Лауни Муид, Луиз Гринбер, Mathilde Warnier, Финнегэн Олдфилд, Элисон Вилер, Waly Dya
Описание:
Чтобы добиться любви любимой девушки и поступить после окончания школы в престижный вуз, главный герой должен непременно сдать итоговый экзамен на отлично, что сделать крайне сложно. Но пасовать перед трудностями не его тема. Вместе со своим другом они разрабатывают хитроумную аферу, как похитить из кабинета директора результаты экзамена. Однако учителя во французских школах тоже не дремлют.

Дата мировой премьеры: 13 июня 2014
Дата премьеры в России: 3 июня 2015
Продолжительность: 01:36:52
Качество видео: BDRip (720p)
Перевод: Многоголосый закадровый, профессиональный
Субтитры: Вшитые отключаемые
Язык субтитров: Английский
Видео: AVC/H.264, 1280x534, ~6222 kb/s
Аудио: AC3, 2 ch, 192 kb/s

Mediainfo:

Format : Matroska
Format version : Version 4 / Version 2
File size : 4.87 GiB
Duration : 1h 36mn
Overall bit rate : 7 197 Kbps
Encoded date : UTC 2015-06-04 09:51:41
Writing application : mkvmerge v6.5.0 ("Isn"t she lovely") built on Oct 20 2013 12:50:05
Writing library : libebml v1.3.0 + libmatroska v1.4.1
DURATION : 01:35:59.542000000
NUMBER_OF_FRAMES : 1383
NUMBER_OF_BYTES : 30137
_STATISTICS_WRITING_APP : mkvmerge v7.3.0 ("Nouages") 64bit built on Oct 22 2014 18:53:34
_STATISTICS_WRITING_DATE_UTC : 2014-12-03 16:03:46
_STATISTICS_TAGS : BPS DURATION NUMBER_OF_FRAMES NUMBER_OF_BYTES
Video
ID : 1
Format : AVC
Format/Info : Advanced Video Codec
Format profile : [url=mailto:High@L4.1]High@L4.1[/url]
Format settings, CABAC : Yes
Format settings, ReFrames : 12 frames
Codec ID : V_MPEG4/ISO/AVC
Duration : 1h 36mn
Bit rate : 6 222 Kbps
Width : 1 280 pixels
Height : 534 pixels
Display aspect ratio : 2.40:1
Original display aspect ratio : 2.40:1
Frame rate : 24.000 fps
Color space : YUV
Chroma subsampling : 4:2:0
Bit depth : 8 bits
Scan type : Progressive
Bits/(Pixel*Frame) : 0.379
Stream size : 4.21 GiB (86%)
Writing library : x264 core 142 r2491kMod 24e4fed
Encoding settings : cabac=1 / ref=12 / deblock=1:-3:-3 / analyse=0x3:0x133 / me=umh / subme=10 / psy=1 / fade_compensate=0.00 / psy_rd=1.00:0.00 / mixed_ref=1 / me_range=24 / chroma_me=1 / trellis=2 / 8x8dct=1 / cqm=0 / deadzone=21,11 / fast_pskip=1 / chroma_qp_offset=-2 / threads=12 / lookahead_threads=2 / sliced_threads=0 / nr=0 / decimate=1 / interlaced=0 / bluray_compat=0 / constrained_intra=0 / fgo=0 / bframes=8 / b_pyramid=2 / b_adapt=2 / b_bias=0 / direct=3 / weightb=1 / open_gop=0 / weightp=2 / keyint=250 / keyint_min=24 / scenecut=40 / intra_refresh=0 / rc=crf / mbtree=0 / crf=16.5000 / qcomp=0.60 / qpmin=0 / qpmax=69 / qpstep=4 / ip_ratio=1.20 / pb_ratio=1.10 / aq=3:0.64
Language : English
Default : Yes
Forced : No
DURATION : 01:36:52.000000000
NUMBER_OF_FRAMES : 139488
NUMBER_OF_BYTES : 4622729232
_STATISTICS_WRITING_APP : mkvmerge v7.3.0 ("Nouages") 64bit built on Oct 22 2014 18:53:34
_STATISTICS_WRITING_DATE_UTC : 2014-12-03 16:03:46
_STATISTICS_TAGS : BPS DURATION NUMBER_OF_FRAMES NUMBER_OF_BYTES
Matrix coefficients : BT.709-5, BT.1361, IEC 61966-2-4 709, SMPTE RP177
Audio #1
ID : 2
Format : AC-3
Format/Info : Audio Coding 3
Mode extension : CM (complete main)
Format settings, Endianness : Big
Codec ID : A_AC3
Duration : 1h 36mn
Bit rate mode : Constant
Bit rate : 192 Kbps
Channel(s) : 2 channels
Channel positions : Front: L R
Sampling rate : 48.0 KHz
Bit depth : 16 bits
Compression mode : Lossy
Stream size : 133 MiB (3%)
Language : Russian
Default : Yes
Forced : No
Audio #2
ID : 3
Format : AC-3
Format/Info : Audio Coding 3
Mode extension : CM (complete main)
Format settings, Endianness : Big
Codec ID : A_AC3
Duration : 1h 36mn
Bit rate mode : Constant
Bit rate : 640 Kbps
Channel(s) : 6 channels
Channel positions : Front: L C R, Side: L R, LFE
Sampling rate : 48.0 KHz
Bit depth : 16 bits
Compression mode : Lossy
Stream size : 443 MiB (9%)
Language : French
Default : No
Forced : No
Text
ID : 4
Format : UTF-8
Codec ID : S_TEXT/UTF8
Codec ID/Info : UTF-8 Plain Text
Language : English
Default : No
Forced : No
Menu
00:00:00.000 : en:00:00:00.000
00:06:16.792 : en:00:06:16.792
00:13:44.458 : en:00:13:44.458
00:23:48.500 : en:00:23:48.500
00:31:54.333 : en:00:31:54.333
00:42:52.625 : en:00:42:52.625
00:46:52.833 : en:00:46:52.833
00:56:33.042 : en:00:56:33.042
01:09:13.875 : en:01:09:13.875
01:20:51.792 : en:01:20:51.792
01:27:08.625 : en:01:27:08.625
01:33:36.333 : en:01:33:36.333
Скриншоты:

[Цитировать]



Показать сообщения:    

Текущее время: 09-Дек 06:56

Часовой пояс: UTC + 3


Вы не можете начинать темы
Вы не можете отвечать на сообщения
Вы не можете редактировать свои сообщения
Вы не можете удалять свои сообщения
Вы не можете голосовать в опросах
Вы не можете прикреплять файлы к сообщениям
Вы не можете скачивать файлы

!ВНИМАНИЕ!
Сайт не предоставляет электронные версии произведений, а занимается лишь коллекционированием и каталогизацией ссылок, присылаемых и публикуемых на форуме нашими читателями. Если вы являетесь правообладателем какого-либо представленного материала и не желаете, чтобы ссылка на него находилась в нашем каталоге, свяжитесь с нами, и мы незамедлительно удалим ее. Файлы для обмена на трекере предоставлены пользователями сайта, и администрация не несет ответственности за их содержание. Просьба не заливать файлы, защищенные авторскими правами, а также файлы нелегального содержания!