[ Сегодня идет свободное скачивание без начисления Download ]


Статистика раздачи
Нет
 
   
 
Top  
 
 
Информация о фильме
Название: Сделай шаг
Оригинальное название: Make It Happen
Год выхода: 2008
Жанр: драма
Режиссер: Даррен Грант /Darren Grant/
В ролях: Мэри Элизабет Уинстэд /Mary Elizabeth Winstead/, Тесса Томпсон /Tessa Thompson/, Райли Смит /Riley Smith/, Джон Рирдон /John Reardon/, Юлисса Бермудез /Julissa Bermudez/, Эшли Робертс /Ashley Roberts/, Карен ЛеБлан /Karen LeBlanc/, Мэтт Киппен /Matt Kippen/, Эрик Фйелдстед /Erik Fjeldsted/, Аарон Мерке /Aaron Merke/ и др.--О фильме:
Лорин, молодая девушка из Индианы, отправлялась в Чикаго с мечтой поступить в Чикагскую Школу Музыки и Танца. Но после неудачи на вступительном конкурсе она вынуждена работать в бурлеск-клубе. Который оказывается местом, позволяющим Лорин понять: планы могут измениться, а мечты — никогда.-- --Страна: США
Студия: The Mayhem Project
Продолжительность: 01:30:00
Перевод: Профессиональный (дублированный) - студия "Пифагор"--Файл
Кодек: H.264
Качество: BDRip 720p
Видео: 1280x536 at 23.976 fps, x264@L4.1, 2pass, ~5000 kbps avg
Аудио#1: Russian: 48 kHz, AC3, 3/2 (L,C,R,l,r) + LFE ch, ~384.00 kbps avg |Дублированный, студия "Пифагор"|
Аудио#2: English: 48 kHz, DTS, 3/2 (L,C,R,l,r) + LFE ch, ~1509.00 kbps avg |Оригинал|
Субтитры: Russian (Full - R5), Ukrainian (Full - R5), English (SDH)--

Скриншоты


MediaInfo

General
Complete name : Make.It.Happen.2008.BluRay.720p.AC3.DTS-x264.HDv0T.mkv
Format : Matroska
Format version : Version 2
File size : 4.33 GiB
Duration : 1h 30mn
Overall bit rate : 6 890 Kbps
Movie name : HDv 0day Team
Encoded date : UTC 2011-04-14 23:00:21
Writing application : mkvmerge v4.6.0 ('Still Crazy After All These Years') built on Mar 10 2011 02:50:32
Writing library : libebml v1.2.0 + libmatroska v1.1.0
Video
ID : 1
Format : AVC
Format/Info : Advanced Video Codec
Format profile : High@L4.1
Format settings, CABAC : Yes
Format settings, ReFrames : 8 frames
Codec ID : V_MPEG4/ISO/AVC
Duration : 1h 30mn
Bit rate : 5 000 Kbps
Width : 1 280 pixels
Height : 536 pixels
Display aspect ratio : 2.40:1
Frame rate mode : Constant
Frame rate : 23.976 fps
Color space : YUV
Chroma subsampling : 4:2:0
Bit depth : 8 bits
Scan type : Progressive
Bits/(Pixel*Frame) : 0.304
Stream size : 3.06 GiB (71%)
Title : Make.It.Happen.2008.BluRay.x264-AngeL
Writing library : x264 core 114 r1924 08d04a4
Encoding settings : cabac=1 / ref=8 / deblock=1:-1:-1 / analyse=0x3:0x113 / me=umh / subme=9 / psy=1 / psy_rd=0.90:0.00 / mixed_ref=1 / me_range=16 / chroma_me=1 / trellis=2 / 8x8dct=1 / cqm=0 / deadzone=21,11 / fast_pskip=0 / chroma_qp_offset=-2 / threads=3 / sliced_threads=0 / nr=0 / decimate=0 / interlaced=0 / constrained_intra=0 / bframes=7 / b_pyramid=2 / b_adapt=2 / b_bias=0 / direct=3 / weightb=1 / open_gop=0 / weightp=2 / keyint=250 / keyint_min=23 / scenecut=40 / intra_refresh=0 / rc=2pass / mbtree=0 / bitrate=5000 / ratetol=1.0 / qcomp=0.60 / qpmin=0 / qpmax=69 / qpstep=4 / cplxblur=20.0 / qblur=0.5 / ip_ratio=1.40 / pb_ratio=1.30 / aq=2:0.60
Language : English
Default : No
Forced : No
Audio #1
ID : 2
Format : AC-3
Format/Info : Audio Coding 3
Mode extension : CM (complete main)
Format settings, Endianness : Big
Codec ID : A_AC3
Duration : 1h 30mn
Bit rate mode : Constant
Bit rate : 384 Kbps
Channel(s) : 6 channels
Channel positions : Front: L C R, Side: L R, LFE
Sampling rate : 48.0 KHz
Bit depth : 16 bits
Compression mode : Lossy
Stream size : 247 MiB (6%)
Title : DUB West-Video AC3: 5.1, 48 KHz, 16bit, 384 kbps (-28 db)
Language : Russian
Default : Yes
Forced : No
Audio #2
ID : 3
Format : DTS
Format/Info : Digital Theater Systems
Mode : 16
Format settings, Endianness : Big
Codec ID : A_DTS
Duration : 1h 30mn
Bit rate mode : Constant
Bit rate : 1 509 Kbps
Channel(s) : 6 channels
Channel positions : Front: L C R, Side: L R, LFE
Sampling rate : 48.0 KHz
Bit depth : 24 bits
Compression mode : Lossy
Stream size : 971 MiB (22%)
Title : DTS: 5.1, 48 KHz, 16 bit, 1536 kbps (-27 db)
Language : English
Default : No
Forced : No
Text #1
ID : 4
Format : UTF-8
Codec ID : S_TEXT/UTF8
Codec ID/Info : UTF-8 Plain Text
Language : Russian
Default : No
Forced : No
Text #2
ID : 5
Format : UTF-8
Codec ID : S_TEXT/UTF8
Codec ID/Info : UTF-8 Plain Text
Language : Ukrainian
Default : No
Forced : No
Text #3
ID : 6
Format : UTF-8
Codec ID : S_TEXT/UTF8
Codec ID/Info : UTF-8 Plain Text
Language : English
Default : No
Forced : No

[Цитировать]



Показать сообщения:    

Текущее время: 10-Дек 09:52

Часовой пояс: UTC + 3


Вы не можете начинать темы
Вы не можете отвечать на сообщения
Вы не можете редактировать свои сообщения
Вы не можете удалять свои сообщения
Вы не можете голосовать в опросах
Вы не можете прикреплять файлы к сообщениям
Вы не можете скачивать файлы

!ВНИМАНИЕ!
Сайт не предоставляет электронные версии произведений, а занимается лишь коллекционированием и каталогизацией ссылок, присылаемых и публикуемых на форуме нашими читателями. Если вы являетесь правообладателем какого-либо представленного материала и не желаете, чтобы ссылка на него находилась в нашем каталоге, свяжитесь с нами, и мы незамедлительно удалим ее. Файлы для обмена на трекере предоставлены пользователями сайта, и администрация не несет ответственности за их содержание. Просьба не заливать файлы, защищенные авторскими правами, а также файлы нелегального содержания!