[ Сегодня идет свободное скачивание без начисления Download ]


Статистика раздачи
Нет
 
   
 
Top  
 
 
-Europe / Original Album Classics (5CD)-- Год издания: 1983 - 1991
Год выпуска: 2015
Страна: Sweden
Жанр: Hard Rock
Продолжительность: 03:41:39-Лейбл издания: Sony Music
Страна-выпуска диска: Austria
Номер по каталогу: 88875063692
Формат: FLAC
Битрейт аудио: lossless
Тип рипа: image+.cue
Наличие сканов в содержимом раздачи: да
-

CD 1 / 1983 - Europe | 00:39:49

01.In The Future To Come (05:02)
02.Farewell (04:01)
03.Seven Doors Hotel (05:17)
04.The King Will Return (05:35)
05.Boyazont (02:32)
06.Children Of This Time (04:56)
07.Words Of Wisdom (04:05)
08.Paradize Bay (03:53)
09.Memories (04:33)

лог создания рипа

Exact Audio Copy V1.0 beta 4 from 7. December 2014
Отчёт EAC об извлечении, выполненном 19. апреля 2015, 9:30
Europe / Europe [2015 Austrian Legacy/Epic/Sony 88875063692CD1]
Дисковод: SlimtypeDVD A DS8A5SH   Adapter: 1  ID: 0
Режим чтения                 : Достоверность
Использование точного потока : Да
Отключение кэша аудио        : Да
Использование указателей C2  : Нет
Коррекция смещения при чтении                     : 6
Способность читать области Lead-in и Lead-out     : Нет
Заполнение пропущенных сэмплов тишиной            : Да
Удаление блоков с тишиной в начале и конце        : Нет
При вычислениях CRC использовались нулевые сэмплы : Да
Интерфейс                                         : Встроенный Win32-интерфейс для Win NT/2000
Выходной формат          : Пользовательский кодировщик
Выбранный битрейт        : 1024 kBit/s
Качество                 : Высокий
Добавление ID3-тега      : Нет
Утилита сжатия           : C:\Program Files (x86)\Exact Audio Copy\FLAC\FLAC.EXE
Дополнительные параметры : -V -8 -T "Date=%year%" -T "Genre=%genre%" %source%
TOC извлечённого CD
     Трек |   Старт  | Длительность | Начальный сектор | Конечный сектор
    ---------------------------------------------------------------------
       1  |  0:00.00 |    5:01.22   |           0      |      22596
       2  |  5:01.22 |    4:00.18   |       22597      |      40614
       3  |  9:01.40 |    5:16.27   |       40615      |      64341
       4  | 14:17.67 |    5:34.50   |       64342      |      89441
       5  | 19:52.42 |    2:31.43   |       89442      |     100809
       6  | 22:24.10 |    4:55.10   |      100810      |     122944
       7  | 27:19.20 |    4:04.25   |      122945      |     141269
       8  | 31:23.45 |    3:52.40   |      141270      |     158709
       9  | 35:16.10 |    4:32.10   |      158710      |     179119
Характеристики диапазона извлечения и сообщения об ошибках
Выбранный диапазон
     Имя файла C:\Users\UncleVasia\Desktop\Europe 1983-1991 Original Album Classics 5xCD\01 Europe\Europe - Europe [2015 Austrian Legacy,Epic,Sony 88875063692CD1].wav
     Пиковый уровень 99.9 %
     Скорость извлечения 2.5 X
     Качество диапазона 100.0 %
     CRC теста CD32F399
     CRC копии CD32F399
     Копирование... OK
Ошибок не произошло
AccurateRip: сводка
Трек  1  точность не определена (достоверность 6)  [64728EEB], AccurateRip вернул [D9074942]  (AR v2)
Трек  2  точность не определена (достоверность 6)  [66FA97BD], AccurateRip вернул [77276BCA]  (AR v2)
Трек  3  точность не определена (достоверность 6)  [BBAE9CEA], AccurateRip вернул [BBA53D5B]  (AR v2)
Трек  4  точность не определена (достоверность 6)  [2A6FDD49], AccurateRip вернул [2A8A2D6D]  (AR v2)
Трек  5  точность не определена (достоверность 6)  [76CF5475], AccurateRip вернул [B342D834]  (AR v2)
Трек  6  точность не определена (достоверность 6)  [B7EA640E], AccurateRip вернул [70B770EC]  (AR v2)
Трек  7  точность не определена (достоверность 6)  [A074AEFF], AccurateRip вернул [10E6F089]  (AR v2)
Трек  8  точность не определена (достоверность 6)  [7B180CC3], AccurateRip вернул [5343ECE5]  (AR v2)
Трек  9  точность не определена (достоверность 6)  [5A419B58], AccurateRip вернул [C506D0FD]  (AR v2)
Ни один трек не прошёл проверки на точность
В вашей базе может быть иной вариант штамповки диска
Конец отчёта
---- CUETools DB Plugin V2.1.4
[CTDB TOCID: EFXKII3ffQoysKovlt8Ko1WKrqo-] found
Submit result: EFXKII3ffQoysKovlt8Ko1WKrqo- has been confirmed
Track | CTDB Status
  1   | (7/7) Accurately ripped
  2   | (7/7) Accurately ripped
  3   | (7/7) Accurately ripped
  4   | (7/7) Accurately ripped
  5   | (7/7) Accurately ripped
  6   | (7/7) Accurately ripped
  7   | (7/7) Accurately ripped
  8   | (7/7) Accurately ripped
  9   | (7/7) Accurately ripped

содержание индексной карты *cue

REM GENRE "Hard Rock"
REM DATE 1983
REM DISCID 75095409
REM COMMENT "ExactAudioCopy v1.0b4"
PERFORMER "Europe"
TITLE "Europe [2015 Austrian Legacy/Epic/Sony 88875063692CD1]"
FILE "Europe - Europe [2015 Austrian Legacy,Epic,Sony 88875063692CD1].flac" WAVE
  TRACK 01 AUDIO
    TITLE "In The Future To Come"
    PERFORMER "Europe"
    INDEX 01 00:00:00
  TRACK 02 AUDIO
    TITLE "Farewell"
    PERFORMER "Europe"
    INDEX 00 05:00:72
    INDEX 01 05:01:22
  TRACK 03 AUDIO
    TITLE "Seven Doors Hotel"
    PERFORMER "Europe"
    INDEX 00 09:01:27
    INDEX 01 09:01:40
  TRACK 04 AUDIO
    TITLE "The King Will Return"
    PERFORMER "Europe"
    INDEX 00 14:17:47
    INDEX 01 14:17:67
  TRACK 05 AUDIO
    TITLE "Boyazont"
    PERFORMER "Europe"
    INDEX 00 19:52:20
    INDEX 01 19:52:42
  TRACK 06 AUDIO
    TITLE "Children Of This Time"
    PERFORMER "Europe"
    INDEX 00 22:23:37
    INDEX 01 22:24:10
  TRACK 07 AUDIO
    TITLE "Words Of Wisdom"
    PERFORMER "Europe"
    INDEX 00 27:18:60
    INDEX 01 27:19:20
  TRACK 08 AUDIO
    TITLE "Paradize Bay"
    PERFORMER "Europe"
    INDEX 00 31:23:15
    INDEX 01 31:23:45
  TRACK 09 AUDIO
    TITLE "Memories"
    PERFORMER "Europe"
    INDEX 00 35:15:42
    INDEX 01 35:16:10

CD 2 / 1986 - Wings Of Tomorrow | 00:38:58

01.Stormwind (04:30)
02.Scream Of Anger (04:07)
03.Open Your Heart (04:09)
04.Treated Bad Again (03:46)
05.Aphasia (02:33)
06.Wings Of Tomorrow (03:59)
07.Wasted Time (04:08)
08.Lyin' Eyes (03:48)
09.Dreamer (04:26)
10.Dance The Night Away (03:36)

лог создания рипа

Exact Audio Copy V1.0 beta 4 from 7. December 2014
Отчёт EAC об извлечении, выполненном 19. апреля 2015, 10:31
Europe / Wings Of Tomorrow [2015 Austrian Legacy/Epic/Sony 88875063692CD2]
Дисковод: SlimtypeDVD A DS8A5SH   Adapter: 1  ID: 0
Режим чтения                 : Достоверность
Использование точного потока : Да
Отключение кэша аудио        : Да
Использование указателей C2  : Нет
Коррекция смещения при чтении                     : 6
Способность читать области Lead-in и Lead-out     : Нет
Заполнение пропущенных сэмплов тишиной            : Да
Удаление блоков с тишиной в начале и конце        : Нет
При вычислениях CRC использовались нулевые сэмплы : Да
Интерфейс                                         : Встроенный Win32-интерфейс для Win NT/2000
Выходной формат          : Пользовательский кодировщик
Выбранный битрейт        : 1024 kBit/s
Качество                 : Высокий
Добавление ID3-тега      : Нет
Утилита сжатия           : C:\Program Files (x86)\Exact Audio Copy\FLAC\FLAC.EXE
Дополнительные параметры : -V -8 -T "Date=%year%" -T "Genre=%genre%" %source%
TOC извлечённого CD
     Трек |   Старт  | Длительность | Начальный сектор | Конечный сектор
    ---------------------------------------------------------------------
       1  |  0:00.00 |    4:29.65   |           0      |      20239
       2  |  4:29.65 |    4:06.55   |       20240      |      38744
       3  |  8:36.45 |    4:08.45   |       38745      |      57389
       4  | 12:45.15 |    3:45.65   |       57390      |      74329
       5  | 16:31.05 |    2:32.60   |       74330      |      85789
       6  | 19:03.65 |    3:58.15   |       85790      |     103654
       7  | 23:02.05 |    4:07.37   |      103655      |     122216
       8  | 27:09.42 |    3:47.58   |      122217      |     139299
       9  | 30:57.25 |    4:25.17   |      139300      |     159191
      10  | 35:22.42 |    3:35.30   |      159192      |     175346
Характеристики диапазона извлечения и сообщения об ошибках
Выбранный диапазон
     Имя файла C:\Users\UncleVasia\Desktop\Europe 1983-1991 Original Album Classics 5xCD\02 Wings Of Tomorrow\Europe - Wings Of Tomorrow [2015 Austrian Legacy,Epic,Sony 88875063692CD2].wav
     Пиковый уровень 95.5 %
     Скорость извлечения 2.5 X
     Качество диапазона 99.9 %
     CRC теста 7839EF7A
     CRC копии 7839EF7A
     Копирование... OK
Ошибок не произошло
AccurateRip: сводка
Трек  1  точность не определена (достоверность 8)  [D97F9123], AccurateRip вернул [526C964A]  (AR v2)
Трек  2  точность не определена (достоверность 8)  [DA5DE36C], AccurateRip вернул [566C78CF]  (AR v2)
Трек  3  точность не определена (достоверность 8)  [F09B6715], AccurateRip вернул [D15637A0]  (AR v2)
Трек  4  точность не определена (достоверность 8)  [12703F20], AccurateRip вернул [FF20B0C1]  (AR v2)
Трек  5  точность не определена (достоверность 8)  [73FD9942], AccurateRip вернул [067E9B88]  (AR v2)
Трек  6  точность не определена (достоверность 8)  [C3909AC1], AccurateRip вернул [3583FAA0]  (AR v2)
Трек  7  точность не определена (достоверность 8)  [CD98B7C4], AccurateRip вернул [5C09C916]  (AR v2)
Трек  8  точность не определена (достоверность 8)  [C36E19AE], AccurateRip вернул [F48059AC]  (AR v2)
Трек  9  точность не определена (достоверность 8)  [D7E4F6B4], AccurateRip вернул [7FBBE335]  (AR v2)
Трек 10  точность не определена (достоверность 8)  [9C88F196], AccurateRip вернул [330DC57F]  (AR v2)
Ни один трек не прошёл проверки на точность
В вашей базе может быть иной вариант штамповки диска
Конец отчёта
---- CUETools DB Plugin V2.1.4
[CTDB TOCID: TjzCQ5SEn1bQXQn29CTn6VejzWs-] found
Submit result: TjzCQ5SEn1bQXQn29CTn6VejzWs- has been confirmed
Track | CTDB Status
  1   | (9/9) Accurately ripped
  2   | (9/9) Accurately ripped
  3   | (9/9) Accurately ripped
  4   | (9/9) Accurately ripped
  5   | (9/9) Accurately ripped
  6   | (9/9) Accurately ripped
  7   | (9/9) Accurately ripped
  8   | (9/9) Accurately ripped
  9   | (9/9) Accurately ripped
10   | (9/9) Accurately ripped

содержание индексной карты *cue

REM GENRE "Hard Rock"
REM DATE 1984
REM DISCID 8909210A
REM COMMENT "ExactAudioCopy v1.0b4"
PERFORMER "Europe"
TITLE "Wings Of Tomorrow [2015 Austrian Legacy/Epic/Sony 88875063692CD2]"
FILE "Europe - Wings Of Tomorrow [2015 Austrian Legacy,Epic,Sony 88875063692CD2].flac" WAVE
  TRACK 01 AUDIO
    TITLE "Stormwind"
    PERFORMER "Europe"
    INDEX 01 00:00:00
  TRACK 02 AUDIO
    TITLE "Scream Of Anger"
    PERFORMER "Europe"
    INDEX 00 04:28:42
    INDEX 01 04:29:65
  TRACK 03 AUDIO
    TITLE "Open Your Heart"
    PERFORMER "Europe"
    INDEX 00 08:34:02
    INDEX 01 08:36:45
  TRACK 04 AUDIO
    TITLE "Treated Bad Again"
    PERFORMER "Europe"
    INDEX 00 12:43:25
    INDEX 01 12:45:15
  TRACK 05 AUDIO
    TITLE "Aphasia"
    PERFORMER "Europe"
    INDEX 00 16:29:10
    INDEX 01 16:31:05
  TRACK 06 AUDIO
    TITLE "Wings Of Tomorrow"
    PERFORMER "Europe"
    INDEX 00 19:01:40
    INDEX 01 19:03:65
  TRACK 07 AUDIO
    TITLE "Wasted Time"
    PERFORMER "Europe"
    INDEX 00 23:00:07
    INDEX 01 23:02:05
  TRACK 08 AUDIO
    TITLE "Lyin' Eyes"
    PERFORMER "Europe"
    INDEX 01 27:09:42
  TRACK 09 AUDIO
    TITLE "Dreamer"
    PERFORMER "Europe"
    INDEX 00 30:55:15
    INDEX 01 30:57:25
  TRACK 10 AUDIO
    TITLE "Dance The Night Away"
    PERFORMER "Europe"
    INDEX 00 35:22:00
    INDEX 01 35:22:42

CD 3 / 1988 - The Final Countdown | 00:39:56

01.The Final Countdown (05:12)
02.Rock The Night (04:04)
03.Carrie (04:31)
04.Danger On The Track (03:46)
05.Ninja (03:47)
06.Cherokee (04:14)
07.Time Has Come (04:01)
08.Heart Of Stone (03:47)
09.On The Loose (03:09)
10.Love Chaser (03:28)

лог создания рипа

Exact Audio Copy V1.0 beta 4 from 7. December 2014
Отчёт EAC об извлечении, выполненном 18. апреля 2015, 22:35
Europe / The Final Countdown [2015 Austrian Legacy/Epic/Sony 88875063692CD3]
Дисковод: SlimtypeDVD A DS8A5SH   Adapter: 1  ID: 0
Режим чтения                 : Достоверность
Использование точного потока : Да
Отключение кэша аудио        : Да
Использование указателей C2  : Нет
Коррекция смещения при чтении                     : 6
Способность читать области Lead-in и Lead-out     : Нет
Заполнение пропущенных сэмплов тишиной            : Да
Удаление блоков с тишиной в начале и конце        : Нет
При вычислениях CRC использовались нулевые сэмплы : Да
Интерфейс                                         : Встроенный Win32-интерфейс для Win NT/2000
Выходной формат          : Пользовательский кодировщик
Выбранный битрейт        : 1024 kBit/s
Качество                 : Высокий
Добавление ID3-тега      : Нет
Утилита сжатия           : C:\Program Files (x86)\Exact Audio Copy\FLAC\FLAC.EXE
Дополнительные параметры : -V -8 -T "Date=%year%" -T "Genre=%genre%" %source%
TOC извлечённого CD
     Трек |   Старт  | Длительность | Начальный сектор | Конечный сектор
    ---------------------------------------------------------------------
       1  |  0:00.00 |    5:11.07   |           0      |      23331
       2  |  5:11.07 |    4:03.73   |       23332      |      41629
       3  |  9:15.05 |    4:30.40   |       41630      |      61919
       4  | 13:45.45 |    3:45.57   |       61920      |      78851
       5  | 17:31.27 |    3:46.43   |       78852      |      95844
       6  | 21:17.70 |    4:13.35   |       95845      |     114854
       7  | 25:31.30 |    4:01.00   |      114855      |     132929
       8  | 29:32.30 |    3:46.57   |      132930      |     149936
       9  | 33:19.12 |    3:08.50   |      149937      |     164086
      10  | 36:27.62 |    3:27.70   |      164087      |     179681
Характеристики диапазона извлечения и сообщения об ошибках
Выбранный диапазон
     Имя файла C:\Users\UncleVasia\Desktop\Europe 1983-1991 Original Album Classics 5xCD\03 The Final Countdown\Europe - The Final Countdown [2015 Austrian Legacy,Epic,Sony 88875063692CD3].wav
     Пиковый уровень 82.8 %
     Скорость извлечения 2.6 X
     Качество диапазона 100.0 %
     CRC теста 85F639A0
     CRC копии 85F639A0
     Копирование... OK
Ошибок не произошло
AccurateRip: сводка
Трек  1  точность не определена (достоверность 2)  [83F95192], AccurateRip вернул [1D2032DE]  (AR v2)
Трек  2  точность не определена (достоверность 2)  [44D77D0D], AccurateRip вернул [FE83D069]  (AR v2)
Трек  3  точность не определена (достоверность 2)  [00AFE95C], AccurateRip вернул [F336052B]  (AR v2)
Трек  4  точность не определена (достоверность 2)  [84FFED00], AccurateRip вернул [2F4A13DF]  (AR v2)
Трек  5  точность не определена (достоверность 2)  [E26D7B81], AccurateRip вернул [FB7C6BC8]  (AR v2)
Трек  6  точность не определена (достоверность 2)  [3C38225E], AccurateRip вернул [D888684B]  (AR v2)
Трек  7  точность не определена (достоверность 2)  [6D0C087B], AccurateRip вернул [A6EE9C6C]  (AR v2)
Трек  8  точность не определена (достоверность 2)  [8BC4AEAE], AccurateRip вернул [FEF36123]  (AR v2)
Трек  9  точность не определена (достоверность 2)  [A7039B1F], AccurateRip вернул [A6EED18C]  (AR v2)
Трек 10  точность не определена (достоверность 2)  [21EFF99F], AccurateRip вернул [ABD0766C]  (AR v2)
Ни один трек не прошёл проверки на точность
В вашей базе может быть иной вариант штамповки диска
Конец отчёта
---- CUETools DB Plugin V2.1.4
[CTDB TOCID: gAUGhPfiuB_GImU2Ce2lerl4oac-] found
Submit result: gAUGhPfiuB_GImU2Ce2lerl4oac- has been confirmed
Track | CTDB Status
  1   | (6/7) Accurately ripped
  2   | (6/7) Accurately ripped
  3   | (6/7) Accurately ripped
  4   | (6/7) Accurately ripped
  5   | (6/7) Accurately ripped
  6   | (6/7) Accurately ripped
  7   | (6/7) Accurately ripped
  8   | (6/7) Accurately ripped
  9   | (6/7) Accurately ripped
10   | (6/7) Accurately ripped

содержание индексной карты *cue

REM GENRE "Hard Rock"
REM DATE 1986
REM DISCID 7D095B0A
REM COMMENT "ExactAudioCopy v1.0b4"
PERFORMER "Europe"
TITLE "The Final Countdown [2015 Austrian Legacy/Epic/Sony 88875063692CD3]"
FILE "Europe - The Final Countdown [2015 Austrian Legacy,Epic,Sony 88875063692CD3].flac" WAVE
  TRACK 01 AUDIO
    TITLE "The Final Countdown"
    PERFORMER "Europe"
    INDEX 01 00:00:00
  TRACK 02 AUDIO
    TITLE "Rock The Night"
    PERFORMER "Europe"
    INDEX 00 05:09:52
    INDEX 01 05:11:07
  TRACK 03 AUDIO
    TITLE "Carrie"
    PERFORMER "Europe"
    INDEX 01 09:15:05
  TRACK 04 AUDIO
    TITLE "Danger On The Track"
    PERFORMER "Europe"
    INDEX 00 13:44:67
    INDEX 01 13:45:45
  TRACK 05 AUDIO
    TITLE "Ninja"
    PERFORMER "Europe"
    INDEX 00 17:31:07
    INDEX 01 17:31:27
  TRACK 06 AUDIO
    TITLE "Cherokee"
    PERFORMER "Europe"
    INDEX 00 21:17:35
    INDEX 01 21:17:70
  TRACK 07 AUDIO
    TITLE "Time Has Come"
    PERFORMER "Europe"
    INDEX 00 25:30:60
    INDEX 01 25:31:30
  TRACK 08 AUDIO
    TITLE "Heart Of Stone"
    PERFORMER "Europe"
    INDEX 00 29:32:05
    INDEX 01 29:32:30
  TRACK 09 AUDIO
    TITLE "On The Loose"
    PERFORMER "Europe"
    INDEX 00 33:18:55
    INDEX 01 33:19:12
  TRACK 10 AUDIO
    TITLE "Love Chaser"
    PERFORMER "Europe"
    INDEX 01 36:27:62

CD 4 / 1989 - Out Of This World | 00:48:00

01.Superstitious (04:35)
02.Let The Good Times Rock (04:05)
03.Open Your Heart (04:06)
04.More Than Meets The Eye (03:22)
05.Coast To Coast (04:02)
06.Ready Or Not (04:05)
07.Sign Of The Times (04:16)
08.Just The Beginning (04:33)
09.Never Say Die (04:02)
10.Lights And Shadows (04:04)
11.Tower's Callin' (03:51)
12.Tomorrow (03:05)

лог создания рипа

Exact Audio Copy V1.0 beta 4 from 7. December 2014
Отчёт EAC об извлечении, выполненном 19. апреля 2015, 11:14
Europe / Out Of This World [2015 Austrian Legacy/Epic/Sony 88875063692CD4]
Дисковод: SlimtypeDVD A DS8A5SH   Adapter: 1  ID: 0
Режим чтения                 : Достоверность
Использование точного потока : Да
Отключение кэша аудио        : Да
Использование указателей C2  : Нет
Коррекция смещения при чтении                     : 6
Способность читать области Lead-in и Lead-out     : Нет
Заполнение пропущенных сэмплов тишиной            : Да
Удаление блоков с тишиной в начале и конце        : Нет
При вычислениях CRC использовались нулевые сэмплы : Да
Интерфейс                                         : Встроенный Win32-интерфейс для Win NT/2000
Выходной формат          : Пользовательский кодировщик
Выбранный битрейт        : 1024 kBit/s
Качество                 : Высокий
Добавление ID3-тега      : Нет
Утилита сжатия           : C:\Program Files (x86)\Exact Audio Copy\FLAC\FLAC.EXE
Дополнительные параметры : -V -8 -T "Date=%year%" -T "Genre=%genre%" %source%
TOC извлечённого CD
     Трек |   Старт  | Длительность | Начальный сектор | Конечный сектор
    ---------------------------------------------------------------------
       1  |  0:00.00 |    4:34.72   |           0      |      20621
       2  |  4:34.72 |    4:04.08   |       20622      |      38929
       3  |  8:39.05 |    4:05.05   |       38930      |      57309
       4  | 12:44.10 |    3:21.60   |       57310      |      72444
       5  | 16:05.70 |    4:01.45   |       72445      |      90564
       6  | 20:07.40 |    4:04.37   |       90565      |     108901
       7  | 24:12.02 |    4:15.58   |      108902      |     128084
       8  | 28:27.60 |    4:32.22   |      128085      |     148506
       9  | 33:00.07 |    4:01.10   |      148507      |     166591
      10  | 37:01.17 |    4:03.55   |      166592      |     184871
      11  | 41:04.72 |    3:50.30   |      184872      |     202151
      12  | 44:55.27 |    3:04.08   |      202152      |     215959
Характеристики диапазона извлечения и сообщения об ошибках
Выбранный диапазон
     Имя файла C:\Users\UncleVasia\Desktop\Europe 1983-1991 Original Album Classics 5xCD\04 Out Of This World\Europe - Out Of This World [2015 Austrian Legacy,Epic,Sony 88875063692CD4].wav
     Пиковый уровень 99.7 %
     Скорость извлечения 2.6 X
     Качество диапазона 99.9 %
     CRC теста 29E8A6C0
     CRC копии 29E8A6C0
     Копирование... OK
Ошибок не произошло
AccurateRip: сводка
Трек  1  отсутствует в базе данных
Трек  2  отсутствует в базе данных
Трек  3  отсутствует в базе данных
Трек  4  отсутствует в базе данных
Трек  5  отсутствует в базе данных
Трек  6  отсутствует в базе данных
Трек  7  отсутствует в базе данных
Трек  8  отсутствует в базе данных
Трек  9  отсутствует в базе данных
Трек 10  отсутствует в базе данных
Трек 11  отсутствует в базе данных
Трек 12  отсутствует в базе данных
Ни одного трека нет в базе AccurateRip
Конец отчёта
---- CUETools DB Plugin V2.1.4
[CTDB TOCID: 1or5CXz1RbpBaKYwDInzUN3ivL8-] found
Submit result: 1or5CXz1RbpBaKYwDInzUN3ivL8- has been confirmed
Track | CTDB Status
  1   | (7/7) Accurately ripped
  2   | (7/7) Accurately ripped
  3   | (7/7) Accurately ripped
  4   | (7/7) Accurately ripped
  5   | (7/7) Accurately ripped
  6   | (7/7) Accurately ripped
  7   | (7/7) Accurately ripped
  8   | (7/7) Accurately ripped
  9   | (7/7) Accurately ripped
10   | (7/7) Accurately ripped
11   | (7/7) Accurately ripped
12   | (7/7) Accurately ripped

содержание индексной карты *cue

REM GENRE "Hard Rock"
REM DATE 1988
REM DISCID B40B3F0C
REM COMMENT "ExactAudioCopy v1.0b4"
PERFORMER "Europe"
TITLE "Out Of This World [2015 Austrian Legacy/Epic/Sony 88875063692CD4]"
FILE "Europe - Out Of This World [2015 Austrian Legacy,Epic,Sony 88875063692CD4].flac" WAVE
  TRACK 01 AUDIO
    TITLE "Superstitious"
    PERFORMER "Europe"
    INDEX 01 00:00:00
  TRACK 02 AUDIO
    TITLE "Let The Good Times Rock"
    PERFORMER "Europe"
    INDEX 01 04:34:72
  TRACK 03 AUDIO
    TITLE "Open Your Heart"
    PERFORMER "Europe"
    INDEX 01 08:39:05
  TRACK 04 AUDIO
    TITLE "More Than Meets The Eye"
    PERFORMER "Europe"
    INDEX 00 12:42:42
    INDEX 01 12:44:10
  TRACK 05 AUDIO
    TITLE "Coast To Coast"
    PERFORMER "Europe"
    INDEX 00 16:04:17
    INDEX 01 16:05:70
  TRACK 06 AUDIO
    TITLE "Ready Or Not"
    PERFORMER "Europe"
    INDEX 00 20:06:25
    INDEX 01 20:07:40
  TRACK 07 AUDIO
    TITLE "Sign Of The Times"
    PERFORMER "Europe"
    INDEX 01 24:12:02
  TRACK 08 AUDIO
    TITLE "Just The Beginning"
    PERFORMER "Europe"
    INDEX 00 28:26:67
    INDEX 01 28:27:60
  TRACK 09 AUDIO
    TITLE "Never Say Die"
    PERFORMER "Europe"
    INDEX 01 33:00:07
  TRACK 10 AUDIO
    TITLE "Lights And Shadows"
    PERFORMER "Europe"
    INDEX 00 37:00:20
    INDEX 01 37:01:17
  TRACK 11 AUDIO
    TITLE "Tower's Callin'"
    PERFORMER "Europe"
    INDEX 01 41:04:72
  TRACK 12 AUDIO
    TITLE "Tomorrow"
    PERFORMER "Europe"
    INDEX 00 44:53:22
    INDEX 01 44:55:27

CD 5 / 1991 - Prisoners In Paradise | 00:54:57

01.All Or Nothing (03:55)
02.Halfway To Heaven (04:07)
03.I'll Cry For You (05:22)
04.Little Bit Of Lovin' (04:49)
05.Talk To Me (04:07)
06.Seventh Sign (04:43)
07.Prisoners In Paradise (05:37)
08.Bad Blood (04:20)
09.Homeland (04:52)
10.Got Your Mind In The Gutter (05:00)
11.'Til My Heart Beats Down Your Door (03:48)
12.Girl From Lebanon (04:21)

лог создания рипа

Exact Audio Copy V1.0 beta 4 from 7. December 2014
Отчёт EAC об извлечении, выполненном 19. апреля 2015, 12:05
Europe / Prisoners In Paradise [2015 Austrian Legacy/Epic/Sony 88875063692CD5]
Дисковод: SlimtypeDVD A DS8A5SH   Adapter: 1  ID: 0
Режим чтения                 : Достоверность
Использование точного потока : Да
Отключение кэша аудио        : Да
Использование указателей C2  : Нет
Коррекция смещения при чтении                     : 6
Способность читать области Lead-in и Lead-out     : Нет
Заполнение пропущенных сэмплов тишиной            : Да
Удаление блоков с тишиной в начале и конце        : Нет
При вычислениях CRC использовались нулевые сэмплы : Да
Интерфейс                                         : Встроенный Win32-интерфейс для Win NT/2000
Выходной формат          : Пользовательский кодировщик
Выбранный битрейт        : 1024 kBit/s
Качество                 : Высокий
Добавление ID3-тега      : Нет
Утилита сжатия           : C:\Program Files (x86)\Exact Audio Copy\FLAC\FLAC.EXE
Дополнительные параметры : -V -8 -T "Date=%year%" -T "Genre=%genre%" %source%
TOC извлечённого CD
     Трек |   Старт  | Длительность | Начальный сектор | Конечный сектор
    ---------------------------------------------------------------------
       1  |  0:00.00 |    3:54.67   |           0      |      17616
       2  |  3:54.67 |    4:06.45   |       17617      |      36111
       3  |  8:01.37 |    5:21.35   |       36112      |      60221
       4  | 13:22.72 |    4:48.13   |       60222      |      81834
       5  | 18:11.10 |    4:06.65   |       81835      |     100349
       6  | 22:18.00 |    4:42.47   |      100350      |     121546
       7  | 27:00.47 |    5:36.68   |      121547      |     146814
       8  | 32:37.40 |    4:19.72   |      146815      |     166311
       9  | 36:57.37 |    4:51.15   |      166312      |     188151
      10  | 41:48.52 |    4:59.55   |      188152      |     210631
      11  | 46:48.32 |    3:47.50   |      210632      |     227706
      12  | 50:36.07 |    4:20.40   |      227707      |     247246
Характеристики диапазона извлечения и сообщения об ошибках
Выбранный диапазон
     Имя файла C:\Users\UncleVasia\Desktop\Europe 1983-1991 Original Album Classics 5xCD\05 Prisoners In Paradise\Europe - Prisoners In Paradise [2015 Austrian Legacy,Epic,Sony 88875063692CD5].wav
     Пиковый уровень 95.4 %
     Скорость извлечения 2.8 X
     Качество диапазона 100.0 %
     CRC теста 731FE895
     CRC копии 731FE895
     Копирование... OK
Ошибок не произошло
AccurateRip: сводка
Трек  1  точность не определена (достоверность 60)  [392BB565], AccurateRip вернул [F2B461F8]  (AR v2)
Трек  2  точность не определена (достоверность 60)  [D32C0029], AccurateRip вернул [F5088629]  (AR v2)
Трек  3  точность не определена (достоверность 61)  [E48EA83B], AccurateRip вернул [28A3836F]  (AR v2)
Трек  4  точность не определена (достоверность 60)  [6107AA8D], AccurateRip вернул [5B68BB83]  (AR v2)
Трек  5  точность не определена (достоверность 59)  [3B0A3024], AccurateRip вернул [9448D68F]  (AR v2)
Трек  6  точность не определена (достоверность 60)  [4795B137], AccurateRip вернул [03FC4169]  (AR v2)
Трек  7  точность не определена (достоверность 61)  [C21BEDA7], AccurateRip вернул [1BCB89A7]  (AR v2)
Трек  8  точность не определена (достоверность 58)  [DDA2F42F], AccurateRip вернул [80433185]  (AR v2)
Трек  9  точность не определена (достоверность 59)  [1B2E3585], AccurateRip вернул [08E6AF46]  (AR v2)
Трек 10  точность не определена (достоверность 58)  [DC608281], AccurateRip вернул [89172AA4]  (AR v2)
Трек 11  точность не определена (достоверность 58)  [98114B18], AccurateRip вернул [F0F84155]  (AR v2)
Трек 12  точность не определена (достоверность 60)  [C01726BB], AccurateRip вернул [F298F6A8]  (AR v2)
Ни один трек не прошёл проверки на точность
В вашей базе может быть иной вариант штамповки диска
Конец отчёта
---- CUETools DB Plugin V2.1.4
[CTDB TOCID: wdLChT503J0SXsLvDgff5j_Mjuw-] found
Submit result: wdLChT503J0SXsLvDgff5j_Mjuw- has been confirmed
Track | CTDB Status
  1   | (74/74) Accurately ripped
  2   | (74/74) Accurately ripped
  3   | (74/74) Accurately ripped
  4   | (74/74) Accurately ripped
  5   | (74/74) Accurately ripped
  6   | (74/74) Accurately ripped
  7   | (74/74) Accurately ripped
  8   | (73/74) Accurately ripped
  9   | (73/74) Accurately ripped
10   | (74/74) Accurately ripped
11   | (74/74) Accurately ripped
12   | (74/74) Accurately ripped

содержание индексной карты *cue

REM GENRE "Hard Rock"
REM DATE 1991
REM DISCID 8F0CE00C
REM COMMENT "ExactAudioCopy v1.0b4"
PERFORMER "Europe"
TITLE "Prisoners In Paradise [2015 Austrian Legacy/Epic/Sony 88875063692CD5]"
FILE "Europe - Prisoners In Paradise [2015 Austrian Legacy,Epic,Sony 88875063692CD5].flac" WAVE
  TRACK 01 AUDIO
    TITLE "All Or Nothing"
    PERFORMER "Europe"
    INDEX 01 00:00:00
  TRACK 02 AUDIO
    TITLE "Halfway To Heaven"
    PERFORMER "Europe"
    INDEX 00 03:54:57
    INDEX 01 03:54:67
  TRACK 03 AUDIO
    TITLE "I'll Cry For You"
    PERFORMER "Europe"
    INDEX 01 08:01:37
  TRACK 04 AUDIO
    TITLE "Little Bit Of Lovin'"
    PERFORMER "Europe"
    INDEX 00 13:22:57
    INDEX 01 13:22:72
  TRACK 05 AUDIO
    TITLE "Talk To Me"
    PERFORMER "Europe"
    INDEX 00 18:10:07
    INDEX 01 18:11:10
  TRACK 06 AUDIO
    TITLE "Seventh Sign"
    PERFORMER "Europe"
    INDEX 00 22:16:72
    INDEX 01 22:18:00
  TRACK 07 AUDIO
    TITLE "Prisoners In Paradise"
    PERFORMER "Europe"
    INDEX 00 26:59:70
    INDEX 01 27:00:47
  TRACK 08 AUDIO
    TITLE "Bad Blood"
    PERFORMER "Europe"
    INDEX 01 32:37:40
  TRACK 09 AUDIO
    TITLE "Homeland"
    PERFORMER "Europe"
    INDEX 00 36:56:12
    INDEX 01 36:57:37
  TRACK 10 AUDIO
    TITLE "Got Your Mind In The Gutter"
    PERFORMER "Europe"
    INDEX 00 41:48:15
    INDEX 01 41:48:52
  TRACK 11 AUDIO
    TITLE "'Til My Heart Beats Down Your Door"
    PERFORMER "Europe"
    INDEX 00 46:48:12
    INDEX 01 46:48:32
  TRACK 12 AUDIO
    TITLE "Girl From Lebanon"
    PERFORMER "Europe"
    INDEX 01 50:36:07
--Не забываем говорить

[Цитировать]



Показать сообщения:    

Текущее время: 11-Дек 16:56

Часовой пояс: UTC + 3


Вы не можете начинать темы
Вы не можете отвечать на сообщения
Вы не можете редактировать свои сообщения
Вы не можете удалять свои сообщения
Вы не можете голосовать в опросах
Вы не можете прикреплять файлы к сообщениям
Вы не можете скачивать файлы

!ВНИМАНИЕ!
Сайт не предоставляет электронные версии произведений, а занимается лишь коллекционированием и каталогизацией ссылок, присылаемых и публикуемых на форуме нашими читателями. Если вы являетесь правообладателем какого-либо представленного материала и не желаете, чтобы ссылка на него находилась в нашем каталоге, свяжитесь с нами, и мы незамедлительно удалим ее. Файлы для обмена на трекере предоставлены пользователями сайта, и администрация не несет ответственности за их содержание. Просьба не заливать файлы, защищенные авторскими правами, а также файлы нелегального содержания!