[ Today is free to download without increasing Download ]

DL-List and Torrent activity
Информация о фильме
Название: Исчезающий иллюзионист
Оригинальное название: Dirk Ohm - Illusjonisten som forsvant
Год выхода: 2015
Жанр: драма, детектив
Режиссер: Бобби Пирс
В ролях: Аугуст Диль, Сара Йорт Дитлевсен, Джо Адриан Хаавинд, Ёрген Лангхелле, Александра Рапапорт, Ингвар Эггерт Сигюрдссон--О фильме: Немецкий иллюзионист Дирк Ом приезжает в городок Гронг, что на севере Норвегии. Его жители обеспокоены исчезновением молодой девушки Марии, и приезжий гость помогает им найти пропавшую. Оказывается так, что Дирк Ом влюбляется в Марию, и, пережидая ночь в местном отеле, воображает, будто они вместе. Чем дальше продвигаются поиски, тем насущнее становится для Дирка вопрос — как отличить иллюзию от реальности?--Выпущено: Норвегия / Film i V?st, Mer Film, Migma Film AB, Wenders Images
Продолжительность: 01:27:31
Озвучивание: Любительское (многоголосое) [Den904 & DeadSno и Datynet], перевод [Станислав Бельков]--Файл
Формат: AVI (XviD)
Качество: WEB-DLRip
Видео: 976 kb/s, 688x288
Аудио: MP3, 128 kb/s (2 ch)--

Media Info

Complete name : C:UsersuserDesktop1s4ezayushchiy.illuzi0nist.2015.L.WEB-DLRip.700MB.avi
Format : AVI
Format/Info : Audio Video Interleave
File size : 698 MiB
Duration : 1h 27mn
Overall bit rate mode : Variable
Overall bit rate : 1 115 Kbps
Writing application : VirtualDubMod (build 2540/release)
Writing library : VirtualDubMod build 2540/release
ID : 0
Format : MPEG-4 Visual
Format profile : Advanced Simple@L5
Format settings, BVOP : 2
Format settings, QPel : No
Format settings, GMC : No warppoints
Format settings, Matrix : Custom
Codec ID : XVID
Codec ID/Hint : XviD
Duration : 1h 27mn
Bit rate : 977 Kbps
Width : 688 pixels
Height : 288 pixels
Display aspect ratio : 2.40:1
Frame rate : 25.000 fps
Color space : YUV
Chroma subsampling : 4:2:0
Bit depth : 8 bits
Scan type : Progressive
Compression mode : Lossy
Bits/(Pixel*Frame) : 0.197
Stream size : 611 MiB (88%)
Writing library : XviD 1.2.1 (UTC 2008-12-04)
ID : 1
Format : MPEG Audio
Format version : Version 1
Format profile : Layer 3
Mode : Joint stereo
Mode extension : MS Stereo
Codec ID : 55
Codec ID/Hint : MP3
Duration : 1h 27mn
Bit rate mode : Variable
Bit rate : 128 Kbps
Channel(s) : 2 channels
Sampling rate : 48.0 KHz
Compression mode : Lossy
Stream size : 80.1 MiB (11%)
Alignment : Split accross interleaves
Interleave, duration : 40 ms (1.00 video frame)
Interleave, preload duration : 500 ms
Writing library : LAME3.98.2




Топик был перенесен из форума Новинки кинопроката в форум Драма

Display posts:    

Current time is: 28-Oct 05:27

All times are UTC + 3

You cannot post new topics in this forum
You cannot reply to topics in this forum
You cannot edit your posts in this forum
You cannot delete your posts in this forum
You cannot vote in polls in this forum
You cannot attach files in this forum
You cannot download files in this forum

The site does not give electronic versions of products, and is engaged only in a collecting and cataloguing of the references sent and published at a forum by our readers. If you are the legal owner of any submitted material and do not wish that the reference to it was in our catalogue, contact us and we shall immediately remove her. Files for an exchange on tracker are given by users of a site, and the administration does not bear the responsibility for their maintenance. The request to not fill in the files protected by copyrights, and also files of the illegal maintenance!