[ Сегодня идет свободное скачивание без начисления Download ]


Статистика раздачи
Нет
 
   
 
Top  
 
 
«Какой чудесный день»- Информация о фильме
Название: Безумный Макс: Дорога ярости
Оригинальное название: Mad Max: Fury Road
Год выхода: 2015
Жанр: Фантастика, боевик, триллер, приключения
Режиссер: Джордж Миллер
Сценарий: Джордж Миллер, Брендан МакКарти, Ник Латурис
Продюсер: Джордж Миллер, Даг Митчелл, П.Дж. Вотен
В ролях: Том Харди, Шарлиз Терон, Николас Холт, Хью Кияс-Бёрн, Джош Хелман, Нэйтан Джонс, Зои Кравиц, Роузи Хантингтон-Уайтли, Райли Кио, Эбби Ли--О фильме:
Преследуемый призраками беспокойного прошлого, Макс уверен, что лучший способ выжить — скитаться в одиночестве. Несмотря на это, он присоединяется к бунтарям, бегущим через всю пустыню на боевой фуре, под предводительством военачальника Фуриосы.
Они пытаются сбежать из Цитадели, страдающей от тирании Несмертного Джо, у которого они забрали кое-что очень ценное. Разъярённый военачальник бросает все свои силы на погоню за мятежниками, ступая на дорогу войны — дорогу ярости.
- - Страна: Австралия, США
Продолжительность: 02:00:21-- Файл
Кодек: MPEG4/ISO/AVC H.264
Формат: MKV
Качество: WEB-DL 720p
Видео: 1280 x 530 (2.415) | 59.940 fps | ~5.0 Мбит/сек
Аудио 1: AC3 | 5.1 | 48 kHz | 384 kbps | 16 bit | Матвеев |
Аудио 2: AC3 | 5.1 | 48 kHz | 384 kbps | 16 bit | Оригинал |
Субтитры: ENG ( UTF8/SRT )

MedifInfo

Видео
Идентификатор : 1
Формат : AVC
Формат/Информация : Advanced Video Codec
Профиль формата : [email protected]
Параметр CABAC формата : Да
Параметр ReFrames формата : 8 кадров
Идентификатор кодека : V_MPEG4/ISO/AVC
Продолжительность : 2 ч. 0 м.
Битрейт : 4999 Кбит/сек
Ширина : 1280 пикселей
Высота : 530 пикселей
Соотношение сторон : 2,40:1
Режим частоты кадров : Постоянный
Частота кадров : 59,880 кадров/сек
Частота кадров в оригинале : 59,940 кадров/сек
Цветовое пространство : YUV
Субдискретизация насыщенности : 4:2:0
Битовая глубина : 8 бит
Тип развёртки : Прогрессивная
Бит/(Пиксели*Кадры) : 0.123
Размер потока : 4,10 Гбайт (85%)
Заголовок : www.60-fps.org
Библиотека кодирования : x264 core 146 r2538 121396c
Настройки программы : cabac=1 / ref=8 / deblock=1:-3:-3 / analyse=0x3:0x133 / me=esa / subme=9 / psy=1 / psy_rd=1.00:0.25 / mixed_ref=1 / me_range=32 / chroma_me=1 / trellis=2 / 8x8dct=1 / cqm=0 / deadzone=6,6 / fast_pskip=1 / chroma_qp_offset=-4 / threads=12 / lookahead_threads=1 / sliced_threads=0 / nr=0 / decimate=0 / interlaced=0 / bluray_compat=0 / constrained_intra=0 / bframes=3 / b_pyramid=2 / b_adapt=2 / b_bias=0 / direct=3 / weightb=1 / open_gop=0 / weightp=2 / keyint=599 / keyint_min=59 / scenecut=40 / intra_refresh=0 / rc_lookahead=60 / rc=2pass / mbtree=1 / bitrate=4999 / ratetol=1.0 / qcomp=0.80 / qpmin=0 / qpmax=69 / qpstep=4 / cplxblur=20.0 / qblur=0.5 / vbv_maxrate=62500 / vbv_bufsize=78125 / nal_hrd=none / filler=0 / ip_ratio=1.10 / aq=1:0.50
Default : Да
Forced : Нет
Аудио #1
Идентификатор : 2
Формат : AC-3
Формат/Информация : Audio Coding 3
Расширение режима : CM (complete main)
Параметр Endianness формата : Big
Идентификатор кодека : A_AC3
Продолжительность : 2 ч. 0 м.
Вид битрейта : Постоянный
Битрейт : 384 Кбит/сек
Каналы : 6 каналов
Расположение каналов : Front: L C R, Side: L R, LFE
Частота : 48,0 КГц
Битовая глубина : 16 бит
Метод сжатия : С потерями
Размер потока : 331 Мбайт (7%)
Заголовок : Матвеев
Язык : Russian
Default : Нет
Forced : Нет
Аудио #2
Идентификатор : 3
Формат : AC-3
Формат/Информация : Audio Coding 3
Расширение режима : CM (complete main)
Параметр Endianness формата : Big
Идентификатор кодека : A_AC3
Продолжительность : 2 ч. 0 м.
Вид битрейта : Постоянный
Битрейт : 384 Кбит/сек
Каналы : 6 каналов
Расположение каналов : Front: L C R, Side: L R, LFE
Частота : 48,0 КГц
Битовая глубина : 16 бит
Метод сжатия : С потерями
Размер потока : 331 Мбайт (7%)
Заголовок : Eng
Язык : English
Default : Нет
Forced : Нет
Текст
Идентификатор : 4
Формат : UTF-8
Идентификатор кодека : S_TEXT/UTF8
Идентификатор кодека/Информация : UTF-8 Plain Text
Язык : English
Default : Нет
Forced : Нет
Меню
00:00:00.000 : en:1
00:10:42.000 : en:2
00:19:06.000 : en:3
00:30:13.000 : en:4
00:42:55.000 : en:5
00:49:33.000 : en:6
00:59:55.000 : en:7
01:13:02.000 : en:8
01:22:08.000 : en:9
01:30:02.000 : en:10
01:40:39.000 : en:11
01:49:12.000 : en:12
01:53:05.000 : en:13

Скриншоты

[Цитировать]



Показать сообщения:    

Текущее время: 04-Дек 21:25

Часовой пояс: UTC + 3


Вы не можете начинать темы
Вы не можете отвечать на сообщения
Вы не можете редактировать свои сообщения
Вы не можете удалять свои сообщения
Вы не можете голосовать в опросах
Вы не можете прикреплять файлы к сообщениям
Вы не можете скачивать файлы

!ВНИМАНИЕ!
Сайт не предоставляет электронные версии произведений, а занимается лишь коллекционированием и каталогизацией ссылок, присылаемых и публикуемых на форуме нашими читателями. Если вы являетесь правообладателем какого-либо представленного материала и не желаете, чтобы ссылка на него находилась в нашем каталоге, свяжитесь с нами, и мы незамедлительно удалим ее. Файлы для обмена на трекере предоставлены пользователями сайта, и администрация не несет ответственности за их содержание. Просьба не заливать файлы, защищенные авторскими правами, а также файлы нелегального содержания!