[ Сегодня идет свободное скачивание без начисления Download ]


Статистика раздачи
Качаю: [ 1 ]
 
   
 
Top  
 
 
-Название: Человек-паук
Оригинальное название: Spider-Man
Год выпуска: 2002
Страна: США
Жанр: фантастика, боевик, приключения
Продолжительность: 02:01:12
Перевод: Дубляж
Субтитры: русские (Полные), английские (Полные)-Режиссер: Сэм Рэйми / Sam Raimi-В ролях: Тоби Магуайр (Spider-Man / Peter Parker), Уиллем Дефо (Green Goblin / Norman Osborn), Кирстен Данст (Mary Jane Watson), Джеймс Франко (Harry Osborn), Клифф Робертсон (Ben Parker), Розмари Харрис (May Parker), Дж.К. Симмонс (J. Jonah Jameson), Джо Манганьелло (Flash Thompson), Майкл Пападжон (Carjacker), Билл Нанн (Joseph «Robbie» Robertson), Джерри Бекер (Maximilian Fargas), Джек Беттс (Henry Balkan)-Описание:
Питер Паркер - обыкновенный школьник. Однажды он отправился с классом на экскурсию, где его кусает странный паук-мутант. Через время парень почувствовал в себе нечеловеческую силу и ловкость в движении, а главное - умение лазать по стенам и метать стальную паутину. Свои способности он направляет на защиту слабых. Так Питер становится настоящим супергероем по имени Человек-паук, который помогает людям и борется с преступностью. Но там, где есть супергерой, рано или поздно всегда объявляется и суперзлодей...-Рейтинг
-Качество: BDRip-AVC 60fps
Формат: MKV
Видео кодек: AVC
Аудио кодек:AC3
Видео: AVC, 1024x552 (1.855), 4000 kbps, 59,940 fps, 0,118 bpp
Аудио: русский / AC3 / 5.1 / 48 kHz / 640 kbps / 16 bit |Дубляж|
Навигация по главам: есть- -

MI

General
Unique ID : 191381044335187380883778024585959303703 (0x8FFAA5FE05BA71DF8B70C8FB270BEA17)
Complete name : A:\Фильмы\BDRip-avc\Человек паук BDRip-AVC 60fps R.G. HD-Films\Человек паук 1.mkv
Format : Matroska
Format version : Version 4 / Version 2
File size : 3.93 GiB
Duration : 2h 1mn
Overall bit rate : 4 643 Kbps
Movie name : R.G. HD-Films by Tiberiumsun69
Encoded date : UTC 2015-06-20 10:46:10
Writing application : mkvmerge v7.9.0 ('Birds') 64bit
Writing library : libebml v1.3.1 + libmatroska v1.4.2
Attachment : Yes
Video
ID : 1
Format : AVC
Format/Info : Advanced Video Codec
Format profile : [email protected]
Format settings, CABAC : Yes
Format settings, ReFrames : 4 frames
Codec ID : V_MPEG4/ISO/AVC
Duration : 2h 1mn
Bit rate : 4 000 Kbps
Width : 1 024 pixels
Height : 552 pixels
Display aspect ratio : 1.855
Frame rate : 59.940 fps
Color space : YUV
Chroma subsampling : 4:2:0
Bit depth : 8 bits
Scan type : Progressive
Bits/(Pixel*Frame) : 0.118
Stream size : 3.31 GiB (84%)
Title : R.G. HD-Films by Tiberiumsun69
Writing library : x264 core 146 r2538 121396c
Encoding settings : cabac=1 / ref=4 / deblock=1:0:0 / analyse=0x3:0x113 / me=umh / subme=9 / psy=1 / psy_rd=1.00:0.10 / mixed_ref=1 / me_range=32 / chroma_me=1 / trellis=2 / 8x8dct=1 / cqm=0 / deadzone=21,11 / fast_pskip=0 / chroma_qp_offset=-3 / threads=12 / lookahead_threads=3 / sliced_threads=0 / nr=0 / decimate=1 / interlaced=0 / bluray_compat=0 / constrained_intra=0 / bframes=16 / b_pyramid=2 / b_adapt=2 / b_bias=0 / direct=3 / weightb=1 / open_gop=0 / weightp=2 / keyint=600 / keyint_min=59 / scenecut=40 / intra_refresh=0 / rc_lookahead=60 / rc=2pass / mbtree=1 / bitrate=4000 / ratetol=1.0 / qcomp=0.60 / qpmin=0 / qpmax=69 / qpstep=4 / cplxblur=20.0 / qblur=0.5 / vbv_maxrate=50000 / vbv_bufsize=62500 / nal_hrd=none / filler=0 / ip_ratio=1.40 / aq=1:1.00
Language : English
Default : Yes
Forced : No
Audio
ID : 2
Format : AC-3
Format/Info : Audio Coding 3
Mode extension : CM (complete main)
Codec ID : A_AC3
Duration : 2h 1mn
Bit rate mode : Constant
Bit rate : 640 Kbps
Channel(s) : 6 channels
Channel positions : Front: L C R, Side: L R, LFE
Sampling rate : 48.0 KHz
Bit depth : 16 bits
Compression mode : Lossy
Stream size : 555 MiB (14%)
Title : Дубляж
Language : Russian
Default : Yes
Forced : No
Text #1
ID : 3
Format : UTF-8
Codec ID : S_TEXT/UTF8
Codec ID/Info : UTF-8 Plain Text
Title : Полные
Language : Russian
Default : No
Forced : No
Text #2
ID : 4
Format : UTF-8
Codec ID : S_TEXT/UTF8
Codec ID/Info : UTF-8 Plain Text
Title : Полные
Language : English
Default : No
Forced : No
Menu
00:00:00.000 : :01. Start
00:06:29.472 : :02. Columbia University Research Lab
00:09:22.896 : :03. Bitten by a Spider
00:14:56.187 : :04. Norman Tests the Performance Enhancers
00:17:50.653 : :05. A Big Change
00:21:53.604 : :06. Great Reflexes
00:23:28.616 : :07. Fight With Flash
00:25:18.767 : :08. Scaling the Hights
00:34:35.115 : :08. With Great Power Comes Great Responsibility
00:40:22.170 : :10. The Wrestling Match
00:41:44.127 : :11. Enter the Thief
00:43:13.883 : :12. The Death of Uncle Ben
00:44:40.011 : :13. Chasing Uncle Ben's Killer
00:54:32.978 : :14. Spider-Man to the Rescue
00:55:52.558 : :15. J. Jonah Jameson
01:00:48.937 : :16. Peter's Photos of Spider-Man
01:04:20.774 : :17. World Unity Festival
01:05:57.036 : :18. Battle Over Times Square
01:12:12.370 : :19. Norman Meets the Goblin
01:14:18.871 : :20. Goblin Terrorizes the Bugle
01:15:48.669 : :21. The Goblin's Proposal
01:19:35.521 : :22. The Alley Kiss
01:22:06.463 : :23. Hot Time With the Goblin
01:25:13.608 : :24. Thanksgiving Dinner
01:30:39.225 : :25. Goblin Attacks Aunt May
01:39:36.679 : :26. The Queensboro Bridge
01:45:08.385 : :27. A Final Battle
01:50:27.830 : :28. Norman's Funeral
-Название: Человек-паук 2
Оригинальное название: Spider-Man 2
Год выпуска: 2004
Страна: США
Жанр: фантастика, боевик, приключения
Продолжительность: 02:15:48
Перевод: Дубляж + многоголосый, закадровый на реж. вставки
Субтитры: русские (Форсированные), русские (Полные), английские (Полные)-Режиссер: Сэм Рэйми / Sam Raimi-В ролях: Тоби Магуайр (Spider-Man / Peter Parker), Кирстен Данст (Mary Jane Watson), Джеймс Франко (Harry Osborn), Альфред Молина (Doc Ock / Dr. Otto Octavius), Розмари Харрис (May Parker), Дж.К. Симмонс (J. Jonah Jameson), Донна Мерфи (Rosalie Octavius), Дэниэл Гиллис (John Jameson), Дилан Бейкер (Dr. Curt Connors), Билл Нанн (Joseph «Robbie» Robertson), Ванесса Ферлито (Louise), Аасиф Мандви (Mr. Aziz)-Описание:
С момента событий, произошедших в первом фильме, прошло два года. Тихоня Питер Паркер сталкивается с новыми проблемами: он борется со своим «даром и проклятьем», отчаянно пытаясь балансировать на грани двух своих жизней: метающего паутину супергероя Человека-Паука и обычного студента колледжа...
Мучимый своими секретами, Питер понимает, что его отношения со всеми, кто ему дорог, в опасности или заходят в тупик. Его любовь к Мэри Джейн становится еще сильнее, обостряемая порывом Питера раскрыть ей свой секрет и признаться в любви. Дружба с Гарри осложняется горечью молодого Осборна по умершему отцу и всё большим желанием отомстить Человеку-Пауку.
Даже любимая тетушка Мэй, у которой были нелегкие времена после смерти дяди Бена, начинает что-то подозревать насчет своего племянника. Жизнь Питера становится еще более сложной, когда он сталкивается с новым суперзлодеем - доктором Отто Октавиусом. Питер должен использовать все свои суперспособности, чтобы одолеть этого жестокого безумца с восемью конечностями...-Рейтинг
-Качество: BDRip-AVC 60fps
Формат: MKV
Видео кодек: AVC
Аудио кодек:AC3
Видео: AVC, 1024x424 (2.40:1), 3700 kbps, 59,940 fps, 0,142 bpp
Аудио: русский / AC3 / 5.1 / 48 kHz / 448 kbps / 16 bit |Дубляж + Многоголосый, закадровый на реж. вставки|
Навигация по главам: есть- -

MI

General
Unique ID : 210834937213812442531075113791035126589 (0x9E9D54F6C3648194B0B66E5ED90DB33D)
Complete name : A:\Фильмы\BDRip-avc\Человек паук BDRip-AVC 60fps R.G. HD-Films\Человек паук 2.mkv
Format : Matroska
Format version : Version 4 / Version 2
File size : 3.94 GiB
Duration : 2h 15mn
Overall bit rate : 4 152 Kbps
Movie name : R.G. HD-Films by Tiberiumsun69
Encoded date : UTC 2015-06-20 11:21:49
Writing application : mkvmerge v7.9.0 ('Birds') 64bit
Writing library : libebml v1.3.1 + libmatroska v1.4.2
Attachment : Yes
Video
ID : 1
Format : AVC
Format/Info : Advanced Video Codec
Format profile : [email protected]
Format settings, CABAC : Yes
Format settings, ReFrames : 4 frames
Codec ID : V_MPEG4/ISO/AVC
Duration : 2h 15mn
Bit rate : 3 700 Kbps
Width : 1 024 pixels
Height : 424 pixels
Display aspect ratio : 2.40:1
Frame rate : 59.940 fps
Color space : YUV
Chroma subsampling : 4:2:0
Bit depth : 8 bits
Scan type : Progressive
Bits/(Pixel*Frame) : 0.142
Stream size : 3.44 GiB (87%)
Title : R.G. HD-FIlms by Tiberiumsun69
Writing library : x264 core 146 r2538 121396c
Encoding settings : cabac=1 / ref=4 / deblock=1:0:0 / analyse=0x3:0x113 / me=umh / subme=9 / psy=1 / psy_rd=1.00:0.10 / mixed_ref=1 / me_range=32 / chroma_me=1 / trellis=2 / 8x8dct=1 / cqm=0 / deadzone=21,11 / fast_pskip=0 / chroma_qp_offset=-3 / threads=12 / lookahead_threads=3 / sliced_threads=0 / nr=0 / decimate=1 / interlaced=0 / bluray_compat=0 / constrained_intra=0 / bframes=16 / b_pyramid=2 / b_adapt=2 / b_bias=0 / direct=3 / weightb=1 / open_gop=0 / weightp=2 / keyint=600 / keyint_min=59 / scenecut=40 / intra_refresh=0 / rc_lookahead=60 / rc=2pass / mbtree=1 / bitrate=3700 / ratetol=1.0 / qcomp=0.60 / qpmin=0 / qpmax=69 / qpstep=4 / cplxblur=20.0 / qblur=0.5 / vbv_maxrate=50000 / vbv_bufsize=62500 / nal_hrd=none / filler=0 / ip_ratio=1.40 / aq=1:1.00
Language : English
Default : Yes
Forced : No
Audio
ID : 2
Format : AC-3
Format/Info : Audio Coding 3
Mode extension : CM (complete main)
Codec ID : A_AC3
Duration : 2h 15mn
Bit rate mode : Constant
Bit rate : 448 Kbps
Channel(s) : 6 channels
Channel positions : Front: L C R, Side: L R, LFE
Sampling rate : 48.0 KHz
Bit depth : 16 bits
Compression mode : Lossy
Stream size : 435 MiB (11%)
Title : Дубляж
Language : Russian
Default : Yes
Forced : No
Text #1
ID : 3
Format : UTF-8
Codec ID : S_TEXT/UTF8
Codec ID/Info : UTF-8 Plain Text
Title : Форсированные
Language : Russian
Default : No
Forced : No
Text #2
ID : 4
Format : UTF-8
Codec ID : S_TEXT/UTF8
Codec ID/Info : UTF-8 Plain Text
Title : Полные
Language : Russian
Default : No
Forced : No
Text #3
ID : 5
Format : UTF-8
Codec ID : S_TEXT/UTF8
Codec ID/Info : UTF-8 Plain Text
Title : Полные
Language : English
Default : No
Forced : No
Menu
00:00:00.000 : en:01. Main Titles
00:03:27.457 : en:02. Pizza man
00:08:13.535 : en:03. J. Jonah Jameson
00:09:41.456 : en:04. Dr. Connors
00:10:54.946 : en:05. "SURPRISE!"
00:16:10.845 : en:06. Peter and MJ in the backyard
00:19:24.663 : en:07. Mr. Ditkovich
00:21:19.737 : en:08. Otto Octavius
00:25:05.629 : en:09. Wash 'n' Dry
00:25:43.667 : en:10. The Importance of Being Earnest
00:27:16.843 : en:11. Car chase
00:29:17.798 : en:12. The importance of being on time
00:31:39.648 : en:13. Web failure
00:32:47.132 : en:14. The elevator
00:35:20.910 : en:15. Peter Calls MJ
00:37:27.120 : en:16. Otto's demonstration
00:44:07.770 : en:17. Horror hospital
00:46:11.143 : en:18. Ock awakens to the horror
00:47:29.555 : en:19. New villain in town
00:49:01.146 : en:20. Doc Ock's lair
00:51:17.449 : en:21. Bank heist
00:54:21.717 : en:22. Battle building
00:57:42.167 : en:23. Planetarium party
01:02:44.344 : en:24. Spidey crash lands in alley
01:04:15.894 : en:25. Ock rebuilds
01:06:08.298 : en:26. Diagnosis
01:08:26.269 : en:27. Spider-Man no more
01:10:49.579 : en:28. "Raindrops Keep Falling On My Head"
01:12:33.599 : en:29. Peter attends MJ's play
01:15:23.435 : en:30. Jameson gets the suit
01:17:11.293 : en:31. Peter's confession
01:21:21.793 : en:32. One more little chore
01:24:15.717 : en:33. Peter and the burning building
01:26:49.538 : en:34. Frustration
01:28:59.334 : en:35. Peter and Aunt May in the backyard
01:32:49.147 : en:36. "My back! My back!"
01:34:22.740 : en:37. MJ Doubts John's the one
01:35:44.655 : en:38. "Do you love me, or not?"
01:38:13.512 : en:39. Enter the octopus
01:40:40.284 : en:40. HE'S BACK
01:41:46.475 : en:41. Clock tower fight
01:42:44.241 : en:42. The train
01:45:32.910 : en:43. A train to catch
01:48:16.448 : en:44. Grateful train passengers
01:50:58.652 : en:45. Harry learns the truth about Peter
01:53:12.869 : en:46. The final confrontation
01:56:23.643 : en:47. Peter appeals to Otto
02:01:27.613 : en:48. Web love
02:03:50.465 : en:49. The return of the Green Goblin
02:06:17.320 : en:50. Here comes the bride
02:10:14.473 : en:51. The final swing
02:11:03.689 : en:52. End credits
-Название: Человек-паук 3: Враг в отражении
Оригинальное название: Spider-Man 3
Год выпуска: 2007
Страна: США
Жанр: фантастика, боевик, приключения
Продолжительность: 02:19:11
Перевод: Дубляж + Многоголосый, закадровый на реж. вставки
Субтитры: русские (Полные), английские (Полные)-Режиссер: Сэм Рэйми / Sam Raimi-В ролях: Тоби Магуайр (Spider-Man / Peter Parker), Кирстен Данст (Mary Jane Watson), Джеймс Франко (New Goblin / Harry Osborn), Томас Хейден Чёрч (Sandman / Flint Marko), Тофер Грейс (Venom / Eddie Brock), Брайс Даллас Ховард (Gwen Stacy), Розмари Харрис (May Parker), Дж.К. Симмонс (J. Jonah Jameson), Джеймс Кромуэлл (Captain Stacy), Илья Баскин (Mr. Ditkovitch), Билл Нанн (Joseph «Robbie» Robertson), Элизабет Бэнкс (Miss Brant)-Описание:
Прошло пять лет с тех пор, как Питер осознал, что «с Великой силой приходит Великая ответственность!», и три года с тех пор, как он отказался быть борцом за справедливость. Но сейчас кажется, Питер прекрасно научился жить несколькими жизнями. Он хорошо учится, Нью-Йорк признал его героем, отношения с Мэри Джейн прочные. Питер даже намеревается сделать ей предложение!
Но к сожалению, его лучший друг Гарри Озборн по-прежнему считает, что именно Человек-паук несет ответственность за безвременную кончину его отца. Гарри намеревается отомстить ему в образе Нового Гоблина. В то же самое время на криминальной сцене Нью-Йорка появляется другой могущественный суперзлодей, известный как Песочный Человек.
Когда Человек-паук надевает таинственный черный костюм, его темная, более мстительная сторона полностью поглощает его. Эти трансформации заставляют его встретиться с самым сильным противником ? с самим собой...-Рейтинг
-Качество: BDRip-AVC 60fps
Формат: MKV
Видео кодек: AVC
Аудио кодек:AC3
Видео: AVC, 1024x424 (2.40:1), 3400 kbps, 59,940 fps, 0,131 bpp
Аудио: русский / AC3 / 5.1 / 48 kHz / 640 kbps / 16 bit |Дубляж + Многоголосый, закадровый на реж. вставки|
Навигация по главам: есть- -

MI

General
Unique ID : 242345558592024493321317969442066980418 (0xB6520E8BA2987ABFBB0CCA299258DE42)
Complete name : A:\Фильмы\BDRip-avc\Человек паук BDRip-AVC 60fps R.G. HD-Films\Человек паук 3.mkv
Format : Matroska
Format version : Version 4 / Version 2
File size : 3.93 GiB
Duration : 2h 19mn
Overall bit rate : 4 044 Kbps
Movie name : R.G. HD-Films by Tiberiumsun69
Encoded date : UTC 2015-06-20 11:32:32
Writing application : mkvmerge v7.9.0 ('Birds') 64bit
Writing library : libebml v1.3.1 + libmatroska v1.4.2
Attachment : Yes
Video
ID : 1
Format : AVC
Format/Info : Advanced Video Codec
Format profile : [email protected]
Format settings, CABAC : Yes
Format settings, ReFrames : 4 frames
Codec ID : V_MPEG4/ISO/AVC
Duration : 2h 19mn
Bit rate : 3 400 Kbps
Width : 1 024 pixels
Height : 424 pixels
Display aspect ratio : 2.40:1
Frame rate : 59.940 fps
Color space : YUV
Chroma subsampling : 4:2:0
Bit depth : 8 bits
Scan type : Progressive
Bits/(Pixel*Frame) : 0.131
Stream size : 3.23 GiB (82%)
Title : R.G. HD-Films by Tiberiumsun69
Writing library : x264 core 146 r2538 121396c
Encoding settings : cabac=1 / ref=4 / deblock=1:0:0 / analyse=0x3:0x113 / me=umh / subme=9 / psy=1 / psy_rd=1.00:0.10 / mixed_ref=1 / me_range=32 / chroma_me=1 / trellis=2 / 8x8dct=1 / cqm=0 / deadzone=21,11 / fast_pskip=0 / chroma_qp_offset=-3 / threads=12 / lookahead_threads=3 / sliced_threads=0 / nr=0 / decimate=1 / interlaced=0 / bluray_compat=0 / constrained_intra=0 / bframes=16 / b_pyramid=2 / b_adapt=2 / b_bias=0 / direct=3 / weightb=1 / open_gop=0 / weightp=2 / keyint=600 / keyint_min=59 / scenecut=40 / intra_refresh=0 / rc_lookahead=60 / rc=2pass / mbtree=1 / bitrate=3400 / ratetol=1.0 / qcomp=0.60 / qpmin=0 / qpmax=69 / qpstep=4 / cplxblur=20.0 / qblur=0.5 / vbv_maxrate=50000 / vbv_bufsize=62500 / nal_hrd=none / filler=0 / ip_ratio=1.40 / aq=1:1.00
Language : English
Default : Yes
Forced : No
Audio
ID : 2
Format : AC-3
Format/Info : Audio Coding 3
Mode extension : CM (complete main)
Codec ID : A_AC3
Duration : 2h 19mn
Bit rate mode : Constant
Bit rate : 640 Kbps
Channel(s) : 6 channels
Channel positions : Front: L C R, Side: L R, LFE
Sampling rate : 48.0 KHz
Bit depth : 16 bits
Compression mode : Lossy
Stream size : 637 MiB (16%)
Title : Дубляж
Language : Russian
Default : Yes
Forced : No
Text #1
ID : 3
Format : UTF-8
Codec ID : S_TEXT/UTF8
Codec ID/Info : UTF-8 Plain Text
Title : Полные
Language : Russian
Default : No
Forced : No
Text #2
ID : 4
Format : UTF-8
Codec ID : S_TEXT/UTF8
Codec ID/Info : UTF-8 Plain Text
Title : Полные
Language : English
Default : No
Forced : No
Menu
00:00:00.000 : en:01. Main Title
00:03:11.525 : en:02. NY Loves Spidey
00:04:39.738 : en:03. It's Wonderful
00:07:59.771 : en:04. The Goblin's Lair
00:08:33.680 : en:05. Web Love
00:10:30.255 : en:06. Flint Marko
00:13:54.709 : en:07. Give Her This
00:16:55.014 : en:08. Peter vs. Harry
00:22:24.301 : en:09. Marko Atomized
00:24:44.942 : en:10. Some Memory Impairment
00:27:11.547 : en:11. Birth of Sandman
00:30:12.644 : en:12. The Review
00:32:31.241 : en:13. Crane Disaster
00:36:10.335 : en:14. Daily Bugle
00:39:43.965 : en:15. 'nuff Said
00:40:08.489 : en:16. Welcome Home Harry!
00:41:43.209 : en:17. One Critic?
00:43:20.014 : en:18. Key to the City
00:44:43.472 : en:19. Sand Truck
00:46:39.005 : en:20. A Good Show
00:49:24.545 : en:21. Armored Car
00:51:53.152 : en:22. Engagement Dinner
00:59:27.731 : en:23. We Were Wrong
01:03:30.473 : en:24. The Symbiote Strikes
01:06:34.532 : en:25. Bank Robbery
01:08:07.417 : en:26. Subway
01:10:45.825 : en:27. Like a Prison
01:13:50.593 : en:28. Lonely Girl
01:15:23.394 : en:29. Calling a Woman
01:16:42.264 : en:30. A Little Self Deception
01:19:21.715 : en:31. Attack His Heart!
01:22:16.682 : en:32. It's Over
01:24:21.348 : en:33. The Other Guy
01:27:08.348 : en:34. Strawberries
01:30:17.787 : en:35. Dirt in Your Eye
01:32:43.475 : en:36. Bad Peter
01:35:14.375 : en:37. Return of the Sandman
01:35:53.498 : en:38. Jazz Club
01:40:46.332 : en:39. the Bell Tower
01:44:15.624 : en:40. Forgive Yourself
01:47:20.225 : en:41. The Team-Up
01:49:10.794 : en:42. City in Crisis
01:52:52.724 : en:43. The Return of Spider-Man
01:56:34.571 : en:44. The Giant Sandman
01:59:57.107 : en:45. Film's Extra
02:00:28.346 : en:46. Team-Work
02:02:26.756 : en:47. Spidey vs. Venom
02:04:29.379 : en:48. Sound Cage
02:06:11.314 : en:49. I Didn't Want This
02:09:33.474 : en:50. You're My Friend
02:11:56.492 : en:51. You or No One
02:13:59.198 : en:52. End Credits
-Название: Новый Человек-паук
Оригинальное название: The Amazing Spider-Man
Год выпуска: 2012
Страна: США
Жанр: фантастика, боевик, приключения
Продолжительность: 02:16:17
Перевод: Дубляж
Субтитры: русские (Форсированные), русские (Полные), английские (Полные)-Режиссер: Марк Уэбб / Marc Webb-В ролях: Эндрю Гарфилд (Spider-Man / Peter Parker), Эмма Стоун (Gwen Stacy), Рис Иванс (The Lizard / Dr. Curt Connors), Дэнис Лири (Captain Stacy), Мартин Шин (Uncle Ben), Салли Филд (Aunt May), Эмбет Дэвидц (Mary Parker), Кэмпбелл Скотт (Richard Parker), Ирфан Кхан (Rajit Ratha), Крис Зилка (Flash Thompson), Макс Чарльз (Peter Parker (Age 4)), Си Томас Хауэлл (Jack's Father)-Описание:
В детстве Питер Паркер был оставлен своими родителями, и поэтому воспитывался дядей и тётей. Шли годы, Питер был обычным примерным школьником, подвергался нападкам хулиганов и был влюблён в свою одноклассницу Гвен Стэйси, которая сама втайне отвечала ему взаимностью. Но после укуса генетически изменённого паука, Питер получает невероятные сверхспособности и его жизнь меняется навсегда.
Однако его не перестаёт мучить вопрос о том, что случилось с его родителями. Он знакомится с давним другом и партнёром своего отца - генетиком Куртом Коннорсом, который вместе с отцом Питера разрабатывал формулу регенерации. Питер помогает её закончить, а Коннорс, всю жизнь мечтавший восстановить свою правую руку, вводит формулу себе и становится Ящером. Осознавая свою вину, Питер начинает новую жизнь в образе таинственного супергероя Человека-паука и становится грозой преступников, одновременно пытаясь найти способ остановить Коннорса.-Рейтинг
-Качество: BDRip-AVC 60fps
Формат: MKV
Видео кодек: AVC
Аудио кодек:AC3
Видео: AVC, 1024x432 (2.35:1), 3500 kbps, 59,940 fps, 0,132 bpp
Аудио: русский / AC3 / 5.1 / 48 kHz / 640 kbps / 16 bit |Дубляж|
Навигация по главам: есть- -

MI

General
Unique ID : 236785352978110250763884476843196648142 (0xB223333E4B521CEFA0C66CFB80178ACE)
Complete name : A:\Фильмы\BDRip-avc\Человек паук BDRip-AVC 60fps R.G. HD-Films\Новый человек паук 1.mkv
Format : Matroska
Format version : Version 4 / Version 2
File size : 3.95 GiB
Duration : 2h 16mn
Overall bit rate : 4 145 Kbps
Movie name : R.G. HD-Films by Tiberiumsun69
Encoded date : UTC 2015-06-20 11:40:27
Writing application : mkvmerge v7.9.0 ('Birds') 64bit
Writing library : libebml v1.3.1 + libmatroska v1.4.2
Attachment : Yes
Video
ID : 1
Format : AVC
Format/Info : Advanced Video Codec
Format profile : [email protected]
Format settings, CABAC : Yes
Format settings, ReFrames : 4 frames
Codec ID : V_MPEG4/ISO/AVC
Duration : 2h 16mn
Bit rate : 3 500 Kbps
Width : 1 024 pixels
Height : 432 pixels
Display aspect ratio : 2.35:1
Frame rate : 59.940 fps
Color space : YUV
Chroma subsampling : 4:2:0
Bit depth : 8 bits
Scan type : Progressive
Bits/(Pixel*Frame) : 0.132
Stream size : 3.26 GiB (83%)
Title : R.G. HD-Films by Tiberiumsun69
Writing library : x264 core 146 r2538 121396c
Encoding settings : cabac=1 / ref=4 / deblock=1:0:0 / analyse=0x3:0x113 / me=umh / subme=9 / psy=1 / psy_rd=1.00:0.10 / mixed_ref=1 / me_range=32 / chroma_me=1 / trellis=2 / 8x8dct=1 / cqm=0 / deadzone=21,11 / fast_pskip=0 / chroma_qp_offset=-3 / threads=12 / lookahead_threads=3 / sliced_threads=0 / nr=0 / decimate=1 / interlaced=0 / bluray_compat=0 / constrained_intra=0 / bframes=16 / b_pyramid=2 / b_adapt=2 / b_bias=0 / direct=3 / weightb=1 / open_gop=0 / weightp=2 / keyint=600 / keyint_min=59 / scenecut=40 / intra_refresh=0 / rc_lookahead=60 / rc=2pass / mbtree=1 / bitrate=3500 / ratetol=1.0 / qcomp=0.60 / qpmin=0 / qpmax=69 / qpstep=4 / cplxblur=20.0 / qblur=0.5 / vbv_maxrate=50000 / vbv_bufsize=62500 / nal_hrd=none / filler=0 / ip_ratio=1.40 / aq=1:1.00
Language : English
Default : Yes
Forced : No
Audio
ID : 2
Format : AC-3
Format/Info : Audio Coding 3
Mode extension : CM (complete main)
Codec ID : A_AC3
Duration : 2h 16mn
Bit rate mode : Constant
Bit rate : 640 Kbps
Channel(s) : 6 channels
Channel positions : Front: L C R, Side: L R, LFE
Sampling rate : 48.0 KHz
Bit depth : 16 bits
Compression mode : Lossy
Stream size : 624 MiB (15%)
Title : Дубляж
Language : Russian
Default : Yes
Forced : No
Text #1
ID : 3
Format : UTF-8
Codec ID : S_TEXT/UTF8
Codec ID/Info : UTF-8 Plain Text
Title : Форсированные
Language : Russian
Default : Yes
Forced : No
Text #2
ID : 4
Format : UTF-8
Codec ID : S_TEXT/UTF8
Codec ID/Info : UTF-8 Plain Text
Title : Полные
Language : Russian
Default : No
Forced : No
Text #3
ID : 5
Format : UTF-8
Codec ID : S_TEXT/UTF8
Codec ID/Info : UTF-8 Plain Text
Title : Полные
Language : English
Default : No
Forced : No
Menu
00:00:00.000 : :Chapter 01
00:07:45.923 : :Chapter 02
00:14:39.670 : :Chapter 03
00:22:57.542 : :Chapter 04
00:32:58.226 : :Chapter 05
00:41:25.065 : :Chapter 06
00:48:42.502 : :Chapter 07
00:55:10.932 : :Chapter 08
01:03:17.293 : :Chapter 09
01:12:29.011 : :Chapter 10
01:17:51.750 : :Chapter 11
01:24:38.948 : :Chapter 12
01:34:04.555 : :Chapter 13
01:42:59.548 : :Chapter 14
01:52:16.354 : :Chapter 15
02:00:52.912 : :Chapter 16
-Название: Новый Человек-паук: Высокое напряжение
Оригинальное название: The Amazing Spider-Man 2
Год выпуска: 2014
Страна: США
Жанр: фэнтези, боевик, приключения
Продолжительность: 02:21:34
Перевод: Дубляж
Субтитры: русские (Форсированные), русские (Полные), английские (Полные)-Режиссер: Марк Уэбб / Marc Webb-В ролях: Эндрю Гарфилд (Spider-Man / Peter Parker), Эмма Стоун (Gwen Stacy), Джейми Фокс (Electro / Max Dillon), Дэйн ДеХаан (Green Goblin / Harry Osborn), Салли Филд (Aunt May), Колм Фиор (Donald Menken), Фелисити Джонс (Felicia), Пол Джаматти (Aleksei Sytsevich), Мартон Чокаш (Dr. Ashley Kafka), Кэмпбелл Скотт (Richard Parker), Эмбет Дэвидц (Mary Parker), Крис Купер (Norman Osborn, в титрах не указан)-Описание:
Питер Паркер под маской Человека-паука по-прежнему спасает мир от злодеев и преступников, а свободное время проводит со своей возлюбленной Гвен, но школьная пора близится к концу, и впереди героев ждет взрослая жизнь. Питер помнит о том, что дал отцу Гвен слово навсегда уйти из жизни девушки, тем самым больше не подвергая ее опасности. Однако сдержать это обещание не так просто. Судьба готовит Питеру сюрпризы: на его пути появится новый противник - Электро, а также ему будет суждено вновь встретиться с давним приятелем Гарри Озборном и узнать много нового о прошлом своей семьи.-Рейтинг
-Качество: BDRip-AVC 60fps
Формат: MKV
Видео кодек: AVC
Аудио кодек:AC3
Видео: AVC, 1024x424 (2.40:1), 3350 kbps, 59,940 fps, 0,129 bpp
Аудио: русский / AC3 / 5.1 / 48 kHz / 640 kbps / 16 bit |Дубляж|
Навигация по главам: есть- -

MI

General
Unique ID : 187174162044910051414418152713883818015 (0x8CD06EAE79C85C04A0FCC7844081181F)
Complete name : A:\Фильмы\BDRip-avc\Человек паук BDRip-AVC 60fps R.G. HD-Films\Новый человек паук 2.mkv
Format : Matroska
Format version : Version 4 / Version 2
File size : 3.95 GiB
Duration : 2h 21mn
Overall bit rate : 3 994 Kbps
Movie name : R.G. HD-Films by Tiberiumsun69
Encoded date : UTC 2015-06-20 11:54:22
Writing application : mkvmerge v7.9.0 ('Birds') 64bit
Writing library : libebml v1.3.1 + libmatroska v1.4.2
Attachment : Yes
Video
ID : 1
Format : AVC
Format/Info : Advanced Video Codec
Format profile : [email protected]
Format settings, CABAC : Yes
Format settings, ReFrames : 4 frames
Codec ID : V_MPEG4/ISO/AVC
Duration : 2h 21mn
Bit rate : 3 350 Kbps
Width : 1 024 pixels
Height : 424 pixels
Display aspect ratio : 2.40:1
Frame rate : 59.940 fps
Color space : YUV
Chroma subsampling : 4:2:0
Bit depth : 8 bits
Scan type : Progressive
Bits/(Pixel*Frame) : 0.129
Stream size : 3.24 GiB (82%)
Title : R.G. HD-Filims by Tiberiumsun69
Writing library : x264 core 146 r2538 121396c
Encoding settings : cabac=1 / ref=4 / deblock=1:0:0 / analyse=0x3:0x113 / me=umh / subme=9 / psy=1 / psy_rd=1.00:0.10 / mixed_ref=1 / me_range=32 / chroma_me=1 / trellis=2 / 8x8dct=1 / cqm=0 / deadzone=21,11 / fast_pskip=0 / chroma_qp_offset=-3 / threads=12 / lookahead_threads=3 / sliced_threads=0 / nr=0 / decimate=1 / interlaced=0 / bluray_compat=0 / constrained_intra=0 / bframes=16 / b_pyramid=2 / b_adapt=2 / b_bias=0 / direct=3 / weightb=1 / open_gop=0 / weightp=2 / keyint=600 / keyint_min=59 / scenecut=40 / intra_refresh=0 / rc_lookahead=60 / rc=2pass / mbtree=1 / bitrate=3350 / ratetol=1.0 / qcomp=0.60 / qpmin=0 / qpmax=69 / qpstep=4 / cplxblur=20.0 / qblur=0.5 / vbv_maxrate=50000 / vbv_bufsize=62500 / nal_hrd=none / filler=0 / ip_ratio=1.40 / aq=1:1.00
Language : English
Default : Yes
Forced : No
Audio
ID : 2
Format : AC-3
Format/Info : Audio Coding 3
Mode extension : CM (complete main)
Codec ID : A_AC3
Duration : 2h 21mn
Bit rate mode : Constant
Bit rate : 640 Kbps
Channel(s) : 6 channels
Channel positions : Front: L C R, Side: L R, LFE
Sampling rate : 48.0 KHz
Bit depth : 16 bits
Compression mode : Lossy
Stream size : 648 MiB (16%)
Title : Дубляж
Language : Russian
Default : Yes
Forced : No
Text #1
ID : 3
Format : UTF-8
Codec ID : S_TEXT/UTF8
Codec ID/Info : UTF-8 Plain Text
Title : Форсированные
Language : Russian
Default : Yes
Forced : No
Text #2
ID : 4
Format : UTF-8
Codec ID : S_TEXT/UTF8
Codec ID/Info : UTF-8 Plain Text
Title : Полные
Language : Russian
Default : No
Forced : No
Text #3
ID : 5
Format : UTF-8
Codec ID : S_TEXT/UTF8
Codec ID/Info : UTF-8 Plain Text
Title : Полные
Language : English
Default : No
Forced : No
Menu
00:00:00.000 : en:00:00:00.000
00:07:05.342 : en:00:07:05.342
00:14:28.201 : en:00:14:28.201
00:20:13.838 : en:00:20:13.838
00:29:27.099 : en:00:29:27.099
00:39:02.590 : en:00:39:02.590
00:50:56.804 : en:00:50:56.804
00:59:52.756 : en:00:59:52.756
01:08:53.129 : en:01:08:53.129
01:16:19.950 : en:01:16:19.950
01:25:27.706 : en:01:25:27.706
01:35:23.259 : en:01:35:23.259
01:41:30.334 : en:01:41:30.334
01:49:18.343 : en:01:49:18.343
01:57:00.639 : en:01:57:00.639
02:04:44.352 : en:02:04:44.352

Скриншоты

[Цитировать]



Показать сообщения:    

Текущее время: 06-Дек 13:16

Часовой пояс: UTC + 3


Вы не можете начинать темы
Вы не можете отвечать на сообщения
Вы не можете редактировать свои сообщения
Вы не можете удалять свои сообщения
Вы не можете голосовать в опросах
Вы не можете прикреплять файлы к сообщениям
Вы не можете скачивать файлы

!ВНИМАНИЕ!
Сайт не предоставляет электронные версии произведений, а занимается лишь коллекционированием и каталогизацией ссылок, присылаемых и публикуемых на форуме нашими читателями. Если вы являетесь правообладателем какого-либо представленного материала и не желаете, чтобы ссылка на него находилась в нашем каталоге, свяжитесь с нами, и мы незамедлительно удалим ее. Файлы для обмена на трекере предоставлены пользователями сайта, и администрация не несет ответственности за их содержание. Просьба не заливать файлы, защищенные авторскими правами, а также файлы нелегального содержания!